Наша группа ВК в очередной раз забанена мы уходим в Телеграм, присоединяйтесь!!!

Лицензия

30

iTunes

мы

iTunes

1

1 сезон

Чернобыль

iTunes

1+1

iTunes

Закатать в асфальт

8 сезон

Игра престолов

1 сезон

Ральф против интернета

ИГРА 18+

pack

ВАЖНО

!!Акция!!

Alien_RageХит недели

RePack

Resident Evil 21
pack

RePack

Metro:Exodus

!!Акция!!

Alien_Rage

RePack

fifa19

RePack

Assassins Creed: Odyssey

RePack

NEED FOR SPEED™ PAYBACK

3 сезон

9 сезон

Бесстыжие 9 сезон

Все сериалы

все сериалы на PB.wtf

RePack

FAR CRY 5
Ребята, катастрофически не хватает 2730р. для оплаты серверов за АПРЕЛЬ (всвязи с блокировками трафик упал в 3 раза), 1-2р., выручайте.
  

Попутчик: Начало или кровавый автостоп / Autostop rosso sangue (Паскуале Феста Кампаниле) [1977, триллер, драма, криминал, BDRip AVC by msltel] MVO pb.wtf

Попутчик: Начало или кровавый автостоп через торрент pb.wtf

Размер: 2.32 GB | Добавлен: 3 года 6 мес. назад | Торрент скачан:5 раз
Скачать  

25-11-2015 08:56 Попутчик: Начало или кровавый автостоп Скачать торрент  

Название: Попутчик: Начало или кровавый автостоп
Оригинальное название: Autostop rosso sangue
Год выпуска: 1977
Страна: Италия
Жанр: триллер, драма, криминал
Продолжительность: 01:44:14
Перевод: профессиональный многоголосый

Режиссёр: Паскуале Феста Кампаниле

В ролях: Франко Неро, Коринн Клери, Дэвид Хесс, Джошуа Синклер, Карло Пури, Игнацио Спалла, Ли Ленуар, Моника Занчи, Бенито Пачифико, Анджело Рагуса

Описание: Разваливающийся брак циничного и жестокого журналиста Уолтера Манчини и дочери его начальника ждёт чудовищное испытание на прочность. На безлюдной дороге они подсадили в машину улыбчивого кудрявого молодого человека, который услужливо готов распахнуть обречённой супружеской чете ворота в преисподнюю...



Качество: BDRip AVC Сравнение с исходником
Формат: MKV
Видео: MPEG-4 AVC, 2549 Кбит/с, 1024x554, 23,976 кадра/с
Аудио 1: русский, AC3, 384 kbps, 2 ch, 48 kHz [профессиональный многоголосый]
Аудио 2: итальянский, AC3, 192 kbps, 2 ch, 48 kHz [оригинал]
Субтитры: русские
Общее
Уникальный идентификатор : 244129590218812733801026776896097031186 (0xB7A9A6187FFD2694996F5BE0E0111412)
Полное имя : D:\Video\Попутчик.1977.BDRip.AVC.mkv
Формат : Matroska
Версия формата : Version 4 / Version 2
Размер файла : 2,32 Гбайт
Продолжительность : 1 ч. 44 м.
Общий поток : 3188 Кбит/сек
Дата кодирования : UTC 2015-11-25 03:55:45
Программа кодирования : mkvmerge v8.2.0 ('World of Adventure') 64bit
Библиотека кодирования : libebml v1.3.1 + libmatroska v1.4.2
DURATION : 01:40:15.431000000
NUMBER_OF_FRAMES : 873
NUMBER_OF_BYTES : 47805
_STATISTICS_WRITING_APP : mkvmerge v8.2.0 ('World of Adventure') 64bit
_STATISTICS_WRITING_DATE_UTC : 2015-11-25 03:55:45
_STATISTICS_TAGS : BPS DURATION NUMBER_OF_FRAMES NUMBER_OF_BYTES

Видео
Идентификатор : 1
Формат : AVC
Формат/Информация : Advanced Video Codec
Профиль формата : High@L4.1
Параметр CABAC формата : Да
Параметр ReFrames формата : 9 кадров
Идентификатор кодека : V_MPEG4/ISO/AVC
Продолжительность : 1 ч. 44 м.
Битрейт : 2549 Кбит/сек
Ширина : 1024 пикселя
Высота : 554 пикселя
Соотношение сторон : 1,85:1
Режим частоты кадров : Постоянный
Частота кадров : 23,976 кадра/сек
Цветовое пространство : YUV
Субдискретизация насыщенности : 4:2:0
Битовая глубина : 8 бит
Тип развёртки : Прогрессивная
Бит/(Пиксели*Кадры) : 0.187
Размер потока : 1,86 Гбайт (80%)
Библиотека кодирования : x264 core 146 r2538 121396c
Настройки программы : cabac=1 / ref=9 / deblock=1:-1:-1 / analyse=0x3:0x113 / me=umh / subme=10 / psy=1 / psy_rd=1.00:0.15 / mixed_ref=1 / me_range=32 / chroma_me=1 / trellis=2 / 8x8dct=1 / cqm=0 / deadzone=21,11 / fast_pskip=1 / chroma_qp_offset=-3 / threads=6 / lookahead_threads=1 / sliced_threads=0 / nr=0 / decimate=1 / interlaced=0 / bluray_compat=0 / constrained_intra=0 / bframes=11 / b_pyramid=2 / b_adapt=2 / b_bias=0 / direct=1 / weightb=1 / open_gop=0 / weightp=2 / keyint=230 / keyint_min=23 / scenecut=40 / intra_refresh=0 / rc_lookahead=40 / rc=crf / mbtree=0 / crf=21.0 / qcomp=0.60 / qpmin=0 / qpmax=69 / qpstep=4 / vbv_maxrate=40000 / vbv_bufsize=50000 / crf_max=0.0 / nal_hrd=none / filler=0 / ip_ratio=1.40 / pb_ratio=1.30 / aq=1:1.00
Язык : Italian
Default : Да
Forced : Нет
DURATION : 01:43:52.268000000
NUMBER_OF_FRAMES : 149425
NUMBER_OF_BYTES : 2042066481
_STATISTICS_WRITING_APP : mkvmerge v8.2.0 ('World of Adventure') 64bit
_STATISTICS_WRITING_DATE_UTC : 2015-11-25 03:55:45
_STATISTICS_TAGS : BPS DURATION NUMBER_OF_FRAMES NUMBER_OF_BYTES

Аудио #1
Идентификатор : 2
Формат : AC-3
Формат/Информация : Audio Coding 3
Расширение режима : CM (complete main)
Параметр Endianness формата : Big
Идентификатор кодека : A_AC3
Продолжительность : 1 ч. 44 м.
Вид битрейта : Постоянный
Битрейт : 384 Кбит/сек
Каналы : 2 канала
Расположение каналов : Front: L R
Частота : 48,0 КГц
Метод сжатия : С потерями
Размер потока : 286 Мбайт (12%)
Заголовок : MVO (Cinema Prestige)
Язык : Russian
Default : Да
Forced : Нет

Аудио #2
Идентификатор : 3
Формат : AC-3
Формат/Информация : Audio Coding 3
Расширение режима : CM (complete main)
Параметр Endianness формата : Big
Идентификатор кодека : A_AC3
Продолжительность : 1 ч. 44 м.
Вид битрейта : Постоянный
Битрейт : 192 Кбит/сек
Каналы : 2 канала
Расположение каналов : Front: L R
Частота : 48,0 КГц
Метод сжатия : С потерями
Размер потока : 143 Мбайт (6%)
Заголовок : Original
Язык : Italian
Default : Нет
Forced : Нет

Текст
Идентификатор : 4
Формат : UTF-8
Идентификатор кодека : S_TEXT/UTF8
Идентификатор кодека/Информация : UTF-8 Plain Text
Заголовок : русский
Язык : Russian
Default : Нет
Forced : Нет
pb.wtf



Скачать Попутчик: Начало или кровавый автостоп через торрент http://s019.radikal.ru/i611/1511/22/671d48b8a246.png Скачать фильм Попутчик: Начало или кровавый автостоп через торрент бесплантно в хорошем качестве Описание: Разваливающийся брак циничного и жестокого журналиста Уолтера Манчини и дочери его начальника ждёт чудовищное испытание на ... 5 10 1
Торрент: Зарегистрирован [2015-11-25 08:56] · скачан: 5 раз
Статус: √ проверено
Размер: 2.32 GB
Как cкачать? Как скачать Попутчик: Начало или кровавый автостоп через торрент | qTorrent

% Раздел Тема Автор DL S | L
Фильмы [HD 720p, 1080p] (Хороший звук DUB, MVO) [ 4.02 GB ] Попутчик: Начало или кровавый автостоп / Autostop rosso sangue [1977 BDRip 720p by msltel] MVO msltel Скачать
1 | 0
Фильмы [HD 720p, 1080p] (Хороший звук DUB, MVO) [ 10.35 GB ] Попутчик: Начало или кровавый автостоп / Autostop rosso sangue [1977 BDRip 1080p by msltel] MVO msltel Скачать
1 | 0
Фильмы [HD 720p, 1080p] (Хороший звук DUB, MVO) [ 4.37 GB ] Попутчик: Начало или Кровавый автостоп / Autostop rosso sangue / Hitch-Hike [1978 BDRip 720p] MVO еnvy Скачать
1 | 0


>> Регистрируемся здесь <<






Отзывы и комментарии о схеме читаем и пишем здесь: ---> Отзывы и комментарии о схеме

Новые благодарочки в телеграм довольных пользователей:
скриншот   скриншот   скриншот   скриншот   скриншот
    Дорогой пользователь! Огромная просьба, поблагодарите релизера, оцените раздачу и оставьте свои комментарий, если Вы скачали Попутчик: Начало или кровавый автостоп через торрент бесплатно! Внесите свою лепту в развитие PiratBit!
    Комментировать посты могут только пользователи прошедшие не сложную регистрацию
    Показать сообщения:    

    Попутчик: Начало или кровавый автостоп через торрент
    Скачать бесплатно Попутчик: Начало или кровавый автостоп
    Попутчик: Начало или кровавый автостоп скачать торрент
    Попутчик: Начало или кровавый автостоп смотреть онлайн
    Cкачать фильм Попутчик: Начало или кровавый автостоп бесплатно
    Попутчик: Начало или кровавый автостоп скачать торрент в хорошем качестве
    Попутчик: Начало или кровавый автостоп смотреть онлайн бесплатно в хорошем качестве


    Вы не можете начинать темы
    Вы не можете отвечать на сообщения
    Вы не можете редактировать свои сообщения
    Вы не можете удалять свои сообщения
    Вы не можете голосовать в опросах
    Вы не можете прикреплять файлы к сообщениям
    Вы можете скачивать файлы