Ссылка на приватное зеркало нашего сайта всего за 1$. Внимание количество ограничено!!!

2 сезон

iTunes

1 сезон

1

2 сезон

2 сезон

iTunes

1 сезон

RePack

30

Ultimate

ВАЖНО

ИГРА 18+

pack

RePack

MK11
pack

Забери бонус

RePack

jed

!!Акция!!

Alien_Rage

RePack

fifa19

RePack

Assassins Creed: Odyssey

RePack

NEED FOR SPEED™ PAYBACK

4 сезон

9 сезон

Бесстыжие 9 сезон

Все сериалы

все сериалы на PB.wtf

RePack

FAR CRY 5
  

Дьявольский / The Diabolical (Алистер Легранд) [2015, ужасы, фантастика, триллер, BDRip 1080p] Любительский (двухголосый) [Sunshine Studio] pb.wtf

Дьявольский через торрент pb.wtf

Размер: 6.67 GB | Добавлен: 4 года 11 мес. назад | Торрент скачан:77 раз
Скачать  

25-11-2015 09:07 Дьявольский Скачать торрент  

Дьявольский / The Diabolical

  • Год выхода: 2015
  • Жанр: ужасы, фантастика, триллер
  • Страна: США
  • Продолжительность: 01:26:20
  • Перевод: Любительский (двухголосый) [Sunshine Studio]
  • Режиссер: Алистер Легранд
  • В ролях:

    Уилмер Калдерон (Miguel), Курт Карли (The Prisoner), Меррин Данги (Mrs. Wallace), Джо Эгендер (Carl), Патрик Фишлер (Austin), Арджун Гупта (Nikolai), Трей Холлэнд (Nestor), Томас Куц (Danny), Эли Лартер (Madison), Этан Джош Ли (Nerdy Friend), Скотт МакАртур (Officer Chambers), Лаура Маргулис (Marcy)


  • Когда Мэдисон, мать-одиночка, и двое её детей сталкиваются с необъяснимыми явлениями в своём доме, она просит помощи у своего парня-учёного, который намерен уничтожить зловещий дух.

  • Качество: BDRip 1080p
  • Формат: MKV
  • Видео кодек: AVC
  • Аудио кодек: AC3, DTS
  • Видео: AVC, 1920x800 (2.40:1), 9365 kbps, 23,976 fps, 0,254 bpp
  • Аудио №1: русский / AC3 / 2.0 / 48 kHz / 192 kbps / 16 bit |DVO|
  • Аудио №2: английский / DTS / 5.1 / 48 kHz / 1510 kbps / 24 bit
  • Навигация по главам: есть

    Код:

    General
    Unique ID                                : 204900832274082405206164516840426943684 (0x9A26770073CCAAA19E9E5851A0CFB4C4)
    Complete name                            : H:\The.D1ab0LicA1.2015.L2.BDRip.1080p.mkv
    Format                                   : Matroska
    Format version                           : Version 4 / Version 2
    File size                                : 6.67 GiB
    Duration                                 : 1h 26mn
    Overall bit rate                         : 11.1 Mbps
    Encoded date                             : UTC 2015-11-25 05:48:22
    Writing application                      : mkvmerge v8.5.2 ('Crosses') 64bit
    Writing library                          : libebml v1.3.3 + libmatroska v1.4.4

    Video
    ID                                       : 1
    Format                                   : AVC
    Format/Info                              : Advanced Video Codec
    Format profile                           : High@L4.1
    Format settings, CABAC                   : Yes
    Format settings, ReFrames                : 5 frames
    Codec ID                                 : V_MPEG4/ISO/AVC
    Duration                                 : 1h 26mn
    Bit rate                                 : 9 365 Kbps
    Width                                    : 1 920 pixels
    Height                                   : 800 pixels
    Display aspect ratio                     : 2.40:1
    Frame rate                               : 23.976 fps
    Color space                              : YUV
    Chroma subsampling                       : 4:2:0
    Bit depth                                : 8 bits
    Scan type                                : Progressive
    Bits/(Pixel*Frame)                       : 0.254
    Stream size                              : 5.51 GiB (83%)
    Title                                    : The.D1ab0LicA1.2015.L2.BDRip.1080p
    Writing library                          : x264 core 148 r2638 7599210
    Encoding settings                        : cabac=1 / ref=5 / deblock=1:0:0 / analyse=0x3:0x133 / me=umh / subme=7 / psy=1 / psy_rd=1.00:0.00 / mixed_ref=1 / me_range=16 / chroma_me=1 / trellis=1 / 8x8dct=1 / cqm=0 / deadzone=21,11 / fast_pskip=0 / chroma_qp_offset=-2 / threads=18 / lookahead_threads=3 / sliced_threads=0 / nr=0 / decimate=1 / interlaced=0 / bluray_compat=0 / constrained_intra=0 / bframes=3 / b_pyramid=2 / b_adapt=1 / b_bias=0 / direct=1 / weightb=1 / open_gop=0 / weightp=2 / keyint=250 / keyint_min=23 / scenecut=40 / intra_refresh=0 / rc_lookahead=40 / rc=2pass / mbtree=1 / bitrate=9365 / ratetol=1.0 / qcomp=0.60 / qpmin=0 / qpmax=69 / qpstep=4 / cplxblur=20.0 / qblur=0.5 / ip_ratio=1.40 / aq=1:1.00
    Language                                 : English
    Default                                  : Yes
    Forced                                   : No

    Audio #1
    ID                                       : 2
    Format                                   : AC-3
    Format/Info                              : Audio Coding 3
    Mode extension                           : CM (complete main)
    Codec ID                                 : A_AC3
    Duration                                 : 1h 26mn
    Bit rate mode                            : Constant
    Bit rate                                 : 192 Kbps
    Channel(s)                               : 2 channels
    Channel positions                        : Front: L R
    Sampling rate                            : 48.0 KHz
    Bit depth                                : 16 bits
    Compression mode                         : Lossy
    Stream size                              : 119 MiB (2%)
    Title                                    : The.D1ab0LicA1.2015.L2.BDRip.1080p
    Language                                 : Russian
    Default                                  : Yes
    Forced                                   : No

    Audio #2
    ID                                       : 3
    Format                                   : DTS
    Format/Info                              : Digital Theater Systems
    Codec ID                                 : A_DTS
    Duration                                 : 1h 26mn
    Bit rate mode                            : Constant
    Bit rate                                 : 1 510 Kbps
    Channel(s)                               : 6 channels
    Channel positions                        : Front: L C R, Side: L R, LFE
    Sampling rate                            : 48.0 KHz
    Bit depth                                : 24 bits
    Compression mode                         : Lossy
    Stream size                              : 932 MiB (14%)
    Title                                    : The.D1ab0LicA1.2015.L2.BDRip.1080p
    Language                                 : English
    Default                                  : No
    Forced                                   : No

    Text
    ID                                       : 4
    Format                                   : UTF-8
    Codec ID                                 : S_TEXT/UTF8
    Codec ID/Info                            : UTF-8 Plain Text
    Title                                    : The.D1ab0LicA1.2015.L2.BDRip.1080p
    Language                                 : Russian
    Default                                  : Yes
    Forced                                   : Yes

    Menu
    00:00:00.000                             : en:00:00:00.000
    00:06:47.949                             : en:00:06:47.949
    00:12:10.188                             : en:00:12:10.188
    00:15:23.714                             : en:00:15:23.714
    00:18:49.170                             : en:00:18:49.170
    00:24:30.344                             : en:00:24:30.344
    00:30:47.387                             : en:00:30:47.387
    00:36:17.550                             : en:00:36:17.550
    00:38:53.373                             : en:00:38:53.373
    00:48:11.722                             : en:00:48:11.722
    00:53:18.612                             : en:00:53:18.612
    00:58:02.354                             : en:00:58:02.354
    01:03:23.341                             : en:01:03:23.341
    01:08:04.789                             : en:01:08:04.789
    01:17:14.588                             : en:01:17:14.588
    01:22:00.332                             : en:01:22:00.332

    Скриншоты:


    © Оформление by -Lexx- pb.wtf



  • Скачать Дьявольский через торрент http://pic.kartinco.top/images/6/stazu.jpg Скачать фильм Дьявольский через торрент бесплантно в хорошем качестве qw.png Когда Мэдисон, мать-одиночка, и двое её детей сталкиваются с необъяснимыми явлениями в своём доме, она просит помощи у своего ... 7 10 3
    Торрент: Зарегистрирован [2015-11-25 09:07] · скачан: 77 раз
    Статус: T временная
    Размер: 6.67 GB
    Как cкачать? Как скачать Дьявольский через торрент | qTorrent

    % Раздел Тема Автор DL S | L
    T Фильмы 2015 (Звук TS, Cam, VO, DVO) [ 1.47 GB ] Дьявольский / The Diabolical [2015 HDRip] VO Ворон Скачать
    1 | 0

    28-11-2019 20:33  

    Отключить всю рекламу на сайте

    25-11-2015 16:06 Дьявольский Скачать торрент  

    Полный бредpb.wtf



      Дорогой пользователь! Огромная просьба, поблагодарите релизера, оцените раздачу и оставьте свои комментарий, если Вы скачали Дьявольский через торрент бесплатно! Внесите свою лепту в развитие PiratBit!
      Комментировать посты могут только пользователи прошедшие не сложную регистрацию
      Показать сообщения:    

      Дьявольский через торрент
      Скачать бесплатно Дьявольский
      Дьявольский скачать торрент
      Дьявольский смотреть онлайн
      Cкачать фильм Дьявольский бесплатно
      Дьявольский скачать торрент в хорошем качестве
      Дьявольский смотреть онлайн бесплатно в хорошем качестве


      Вы не можете начинать темы
      Вы не можете отвечать на сообщения
      Вы не можете редактировать свои сообщения
      Вы не можете удалять свои сообщения
      Вы не можете голосовать в опросах
      Вы не можете прикреплять файлы к сообщениям
      Вы можете скачивать файлы