1 сезон

1 сезон

iTunes

1

КиноПоиск HD

Кинопоиск HD

iTunes

13

1 сезон

RePack

30

Новинка

ВАЖНО

ИГРА 18+

pack

RePack

MK11
pack

Легкие деньги

RePack

jed

RePack

fifa19

RePack

RDR2

RePack

NEED FOR SPEED™ PAYBACK

4 сезон

9 сезон

Бесстыжие 9 сезон

Все сериалы

все сериалы на PB.wtf

RePack

FAR CRY 5
  
Magnet ссылка

Заплатить сполна / Paid in Full (Чарльз Стоун III / Charles Stone III) [2002, США, боевик, драма, криминал, BDRip-AVC от sokol_ok] MVO [Лицензия] pb.wtf

Заплатить сполна через торрент pb.wtf

Раздают: 1 [ 0 KB/s ]
Размер: 1.45 GB | Добавлен: 5 лет 4 мес. назад | Торрент скачан:82 раза
Скачать  

25-11-2015 18:07 Заплатить сполна Скачать торрент  

Заплатить сполна
Paid in Full

«The American Dream... Their way»


Страна: США
Жанр: боевик, драма, криминал

Год выпуска: 2002
Продолжительность: 01:38:02

Перевод: Профессиональный (многоголосый, закадровый) [Лицензия R5]
Субтитры: русские, английские, английские (SDH)
Оригинальная аудиодорожка: нет

Режиссер: Чарльз Стоун III / Charles Stone III

В ролях: Вуд Харрис, Мекхай Файфер, Кевин Кэрролл, Эсай Моралес, Чи МакБрайд, Камрон, Ремо Грин, Синтия Мартеллс, Элиз Нил, Реджина Холл, Джойс Уолкер, Рон Сепас Джонс

Описание:
Действие фильма происходит в Гарлеме в Нью-Йорке в 1986 году. История Эйса, мусорщика, который жаждет дорогих автомобилей и роскошной одежды как у его друзей Митча и Кэлвина. Благодаря случаю мир Эйса внезапно изменяется.
В обычной прачечной он знакомится с Лулу, чья роскошная квартира и драгоценности говорят о многом. Эйс быстро вливается в мир наркотиков, где легкие деньги предоставляют ему Влacть в преступном мире, полном смерти. Релиз:

Автор рипа: Stalker oK

Сэмпл

Качество видео: BDRip-AVC [Blu-ray 1080p]
Формат видео: MKV
Видео кодек: AVC
Аудио кодек: AC3
Видео: 1736 Кбит/сек, 928x522 (16:9), 23,976 кадр/сек, AVC
Аудио: русский, 384 Кбит/сек, 48 КГц, 16 бит, 5.1, AC3
Навигация по главам: есть

General
Unique ID : 210724246303694287674826619896803831740 (0x9E88037B0EF0EB30B7D57B0879EB2FBC)
Complete name : L:\рипы\Заплатить сполна\Paid.in.Full.2002.BDRip-AVC.MVO.1.45Gb.stalkerok.new-team.mkv
Format : Matroska
File size : 1.45 GiB
Duration : 1h 38mn
Overall bit rate : 2 120 Kbps
Movie name : Paid in Full, 2002 (New-Team) (Rip by Stalker oK)
Encoded date : UTC 2015-06-29 11:12:38
Writing application : mkvmerge v7.9.0 ('Birds') 64bit
Writing library : libebml v1.3.1 + libmatroska v1.4.2

Video
ID : 1
Format : AVC
Format/Info : Advanced Video Codec
Format profile : High@L4.1
Format settings, CABAC : Yes
Format settings, ReFrames : 12 frames
Codec ID : V_MPEG4/ISO/AVC
Duration : 1h 38mn
Bit rate : 1 736 Kbps
Width : 928 pixels
Height : 522 pixels
Display aspect ratio : 16:9
Frame rate : 23.976 fps
Color space : YUV
Chroma subsampling : 4:2:0
Bit depth : 8 bits
Scan type : Progressive
Bits/(Pixel*Frame) : 0.149
Stream size : 1.16 GiB (80%)
Writing library : x264 core 146 r2538kMod 121396c
Encoding settings : cabac=1 / ref=12 / deblock=1:-2:-1 / analyse=0x3:0x133 / me=umh / subme=11 / psy=1 / fade_compensate=0.00 / psy_rd=1.10:0.05 / mixed_ref=1 / me_range=32 / chroma_me=1 / trellis=2 / 8x8dct=1 / cqm=0 / deadzone=21,11 / fast_pskip=0 / chroma_qp_offset=-3 / threads=12 / lookahead_threads=3 / sliced_threads=0 / nr=0 / decimate=0 / interlaced=0 / bluray_compat=0 / constrained_intra=0 / fgo=0 / bframes=14 / b_pyramid=2 / b_adapt=2 / b_bias=0 / direct=3 / weightb=1 / open_gop=0 / weightp=2 / keyint=240 / keyint_min=23 / scenecut=40 / intra_refresh=0 / rc_lookahead=40 / rc=2pass / mbtree=0 / bitrate=1736 / ratetol=1.0 / qcomp=0.70 / qpmin=0 / qpmax=69 / qpstep=4 / cplxblur=20.0 / qblur=0.5 / vbv_maxrate=50000 / vbv_bufsize=62500 / nal_hrd=none / filler=0 / ip_ratio=1.40 / pb_ratio=1.30 / aq=3:0.80

Audio
ID : 2
Format : AC-3
Format/Info : Audio Coding 3
Mode extension : CM (complete main)
Codec ID : A_AC3
Duration : 1h 38mn
Bit rate mode : Constant
Bit rate : 384 Kbps
Channel(s) : 6 channels
Channel positions : Front: L C R, Side: L R, LFE
Sampling rate : 48.0 KHz
Bit depth : 16 bits
Compression mode : Lossy
Stream size : 269 MiB (18%)
Language : Russian

Text #1
ID : 3
Format : UTF-8
Codec ID : S_TEXT/UTF8
Codec ID/Info : UTF-8 Plain Text
Language : Russian

Text #2
ID : 4
Format : UTF-8
Codec ID : S_TEXT/UTF8
Codec ID/Info : UTF-8 Plain Text
Language : English

Text #3
ID : 5
Format : UTF-8
Codec ID : S_TEXT/UTF8
Codec ID/Info : UTF-8 Plain Text
Title : SDH
Language : English

Menu
00:00:00.000 : en:Chapter 1
00:05:36.169 : en:Chapter 2
00:10:53.110 : en:Chapter 3
00:17:30.466 : en:Chapter 4
00:24:41.438 : en:Chapter 5
00:28:35.547 : en:Chapter 6
00:34:37.533 : en:Chapter 7
00:42:14.532 : en:Chapter 8
00:49:46.608 : en:Chapter 9
00:54:17.045 : en:Chapter 10
01:01:31.312 : en:Chapter 11
01:09:57.985 : en:Chapter 12
01:18:58.692 : en:Chapter 13
01:24:09.961 : en:Chapter 14
01:30:39.225 : en:Chapter 15
01:32:45.393 : en:Chapter 16
pb.wtf



Скачать Заплатить сполна через торрент http://i72.fastpic.ru/big/2015/0531/46/68ef8a2783b58e5344cc30bbd3f1b046.png Скачать фильм Заплатить сполна через торрент бесплантно в хорошем качестве Описание:Действие фильма происходит в Гарлеме в Нью-Йорке в 1986 году. История Эйса, мусорщика, который жаждет дорогих автомобилей и ... 8 10 5
Торрент: Зарегистрирован [2015-11-25 18:07] · скачан: 82 раз
Статус: √ проверено
Размер: 1.45 GB
Как cкачать? Как скачать Заплатить сполна через торрент | UTorrent

% Раздел Тема Автор DL S | L
Фильмы 2001-2005 [ 1.36 GB ] Заплатить сполна / Paid in full [2002 DVDRip] diksher Скачать
1 | 0

28-11-2019 20:33  

Отключить всю рекламу на сайте

    Дорогой пользователь! Огромная просьба, поблагодарите релизера, оцените раздачу и оставьте свои комментарий, если Вы скачали Заплатить сполна через торрент бесплатно! Внесите свою лепту в развитие PiratBit!
    Комментировать посты могут только пользователи прошедшие не сложную регистрацию
    Показать сообщения:    

    Заплатить сполна через торрент
    Скачать бесплатно Заплатить сполна
    Заплатить сполна скачать торрент
    Заплатить сполна смотреть онлайн
    Cкачать фильм Заплатить сполна бесплатно
    Заплатить сполна скачать торрент в хорошем качестве
    Заплатить сполна смотреть онлайн бесплатно в хорошем качестве


    Вы не можете начинать темы
    Вы не можете отвечать на сообщения
    Вы не можете редактировать свои сообщения
    Вы не можете удалять свои сообщения
    Вы не можете голосовать в опросах
    Вы не можете прикреплять файлы к сообщениям
    Вы можете скачивать файлы