новый адрес
Мега распродажа FORZA HORIZON 4 ULTIMATE+ВСЕ DLC+ОНЛАЙН всего за 499р. 349 руб. (супер цена). Внимание количество ограничено!!!

iTunes

1+1

iTunes

мы

iTunes

1

iTunes

Чернобыль

iTunes

Ральф против интернета

Лицензия

ПШазам

Лицензия

Игра престолов

Лицензия

30
pack

ВАЖНО

!!Акция!!

Alien_RageХит недели

RePack

Resident Evil 21

ИГРА 18+

pack

RePack

Metro:Exodus

!!Акция!!

Alien_Rage

RePack

fifa19

RePack

Assassins Creed: Odyssey

RePack

NEED FOR SPEED™ PAYBACK

3 сезон

9 сезон

Бесстыжие 9 сезон

Все сериалы

все сериалы на PB.wtf

RePack

FAR CRY 5
Ребята, катастрофически не хватает 1900р. для оплаты серверов за Октябрь (всвязи с блокировками трафик упал в 3 раза), 1-2р., выручайте.
  

Большой концерт (Вера Строева) [1951, СССР, музыка, DVDRip от AVP Studio] pb.wtf

Большой концерт через торрент pb.wtf

Размер: 1.46 GB | Добавлен: 3 года 11 мес. назад | Торрент скачан:17 раз
Скачать  

26-11-2015 09:16 Большой концерт Скачать торрент  

Большой концерт
Страна: СССР
Производство: Мосфильм

Жанр: биография
Год выпуска: 1951
Продолжительность: 01:42:11

Перевод: Не требуется
Cубтитры: нет
Оригинальная аудиодорожка: русский

Режиссер: Вера Строева

В ролях:
Валерия Барсова, Ксения Держинская, Иван Козловский, Ольга Лепешинская, Максим Михайлов, Александр Пирогов, Марк Рейзен, Галина Уланова, Михаил Габович, Вера Давыдова, Алексей Ермолаев, Мария Максакова (II), Асаф Мессерер, Сергей Мигай, Николай Озеров (II), Марина Семёнова, Сергей Корень, Юрий Кондратов, Василий Макаров, Майя Плисецкая, Владимир Преображенский, Александр Плотников, Александр Радунский, Евгения Смоленская, Георгий Фарманянц, Елена Чикваидзе, Лариса Авдеева, Александр Дегтярь, Мария Звездина, Евгения Ильющенко, Александр Лапаури, Александр Огнивцев, Тихон Черняков, Александр Мелик-Пашаев, Ростислав Захаров, Леонид Лавровский, Юрий Файер, Василий Небольсин, Константин Массалитинов, Игорь Бельский, Николай Голованов, Мария Мордасова, Николай Тимофеев, Иван Руденко (II)...
Полный список актёров

Описание:
В Москву на спектакль Большого театра приезжают колхозники. После спектакля благодарные зрители приглашают артистов театра на празднование двадцатилетнего юбилея колхоза "Победа". На празднике почетных гостей восхищает пение молодых колхозников Званцевой и Уфимцева. Осенью они поступают в Московскую консерваторию...

Источник: DVD5 R5
Качество видео: DVDRip
Формат видео: AVI

Видео: 688x512 (4:3), 25 fps, XviD ~ 1841 kbps avg, 0.209 bit/pixel
Аудио: 48 kHz, Dolby Digital AC3 2.0, 192 kbps

Раздача от:
Общее
Полное имя : Bolshoy.koncert.1951.DVDRip_[New-team]_by_AVP_Studio.avi
Формат : AVI
Формат/Информация : Audio Video Interleave
Размер файла : 1,46 Гбайт
Продолжительность : 1 ч. 42 м.
Общий поток : 2043 Кбит/сек
Программа кодирования : VirtualDubMod 1.5.10.3 | www.virtualdub-fr.org || (build 2550/release)
Библиотека кодирования : VirtualDubMod build 2550/release

Видео
Идентификатор : 0
Формат : MPEG-4 Visual
Профиль формата : Advanced Simple@L5
Параметр BVOP формата : 1
Параметр QPel формата : Нет
Параметр GMC формата : Без точки перехода
Параметр матрицы формата : Выборочная
Идентификатор кодека : XVID
Идентификатор кодека/Подсказка : XviD
Продолжительность : 1 ч. 42 м.
Битрейт : 1841 Кбит/сек
Ширина : 688 пикселей
Высота : 512 пикселей
Соотношение сторон : 4:3
Частота кадров : 25,000 кадров/сек
Цветовое пространство : YUV
Субдискретизация насыщенности : 4:2:0
Битовая глубина : 8 бит
Тип развёртки : Прогрессивная
Метод сжатия : С потерями
Бит/(Пиксели*Кадры) : 0.209
Размер потока : 1,31 Гбайт (90%)
Библиотека кодирования : XviD 73

Аудио
Идентификатор : 1
Формат : AC-3
Формат/Информация : Audio Coding 3
Расширение режима : CM (complete main)
Параметр Endianness формата : Big
Идентификатор кодека : 2000
Продолжительность : 1 ч. 42 м.
Вид битрейта : Постоянный
Битрейт : 192 Кбит/сек
Каналы : 2 канала
Расположение каналов : Front: L R
Частота : 48,0 КГц
Метод сжатия : С потерями
Размер потока : 140 Мбайт (9%)
Выравнивание : Разделение по промежуткам
Продолжительность промежутка : 40 мс. (1,00 видеокадр)
Время предзагрузки промежутка : 500 мс
pb.wtf



Скачать Большой концерт через торрент http://i008.radikal.ru/1511/d1/72ac5e445563.png Скачать фильм Большой концерт через торрент бесплантно в хорошем качестве Описание:В Москву на спектакль Большого театра приезжают колхозники. После спектакля благодарные зрители приглашают артистов театра на ... 5 10 1
Торрент: Зарегистрирован [2015-11-26 09:16] · скачан: 17 раз
Статус: √ проверено
Размер: 1.46 GB
Как cкачать? Как скачать Большой концерт через торрент | qTorrent

% Раздел Тема Автор DL S | L
Кино СССР [ 1.46 GB ] Большой концерт [1951 СССР музыка DVDRip-AVC от AVP Studio] AVP Studio Скачать
1 | 0
Кино СССР [ 745 MB ] Большой концерт [1951 СССР музыка DVDRip от AVP Studio] AVP Studio Скачать
1 | 0
Comedy Club - Комеди Клаб new [ 626 MB ] Павел Воля. Большой Stand Up / Концерт в театре эстрады [2013 Юмористическое шоу импровизация WEB-DLRip Оригинал] MrKuzj Скачать
1 | 0
Развлекательные телепередачи и шоу, приколы и юмор [ 1.78 GB ] Две звезды. Большой Новогодний концерт [2011 Концерт SATRip] SD Скачать
1 | 0
Отечественный Рэп, Хип-Хоп [ 192 MB ] Каста и Ансамбль Ростовской Консерватории - Большой концерт - 2011 MP3 320 kbps FRed11kun Скачать
1 | 0
Вечерний Квартал [ 1.54 GB ] Вечерний квартал / Весна в большом городе [2010 Концерт SATRip] DEVI Скачать
1 | 0


>> Регистрируемся здесь <<






Отзывы и комментарии о схеме читаем и пишем здесь: ---> Отзывы и комментарии о схеме

Новые благодарочки в телеграм довольных пользователей:
скриншот   скриншот   скриншот   скриншот   скриншот
    Дорогой пользователь! Огромная просьба, поблагодарите релизера, оцените раздачу и оставьте свои комментарий, если Вы скачали Большой концерт через торрент бесплатно! Внесите свою лепту в развитие PiratBit!
    Комментировать посты могут только пользователи прошедшие не сложную регистрацию
    Показать сообщения:    

    Большой концерт через торрент
    Скачать бесплатно Большой концерт
    Большой концерт скачать торрент
    Большой концерт смотреть онлайн
    Cкачать фильм Большой концерт бесплатно
    Большой концерт скачать торрент в хорошем качестве
    Большой концерт смотреть онлайн бесплатно в хорошем качестве


    Вы не можете начинать темы
    Вы не можете отвечать на сообщения
    Вы не можете редактировать свои сообщения
    Вы не можете удалять свои сообщения
    Вы не можете голосовать в опросах
    Вы не можете прикреплять файлы к сообщениям
    Вы можете скачивать файлы