Ссылка на приватное зеркало нашего сайта всего за 1$. Внимание количество ограничено!!!

2 сезон

iTunes

1 сезон

1

2 сезон

2 сезон

iTunes

1 сезон

RePack

30

Ultimate

ВАЖНО

ИГРА 18+

pack

RePack

MK11
pack

Забери бонус

RePack

jed

!!Акция!!

Alien_Rage

RePack

fifa19

RePack

Assassins Creed: Odyssey

RePack

NEED FOR SPEED™ PAYBACK

4 сезон

9 сезон

Бесстыжие 9 сезон

Все сериалы

все сериалы на PB.wtf

RePack

FAR CRY 5
  

Ларри Гэй: Стюард-отступник / Larry Gaye: Renegade Male Flight Attendant (Сэм Фридлендер) [2015, комедия, HDRip, Любительский (одноголосый) [VANO] pb.wtf

Ларри Гэй: Стюард-отступник через торрент pb.wtf

Размер: 1.45 GB | Добавлен: 4 года 11 мес. назад | Торрент скачан:98 раз
Скачать  

27-11-2015 04:18 Ларри Гэй: Стюард-отступник Скачать торрент  


Ларри Гэй: Стюард-отступник / Larry Gaye: Renegade Male Flight Attendant


ИНФОРМАЦИЯ:
Год выпуска:2015
Страна: США
Жанр: комедия
Продолжительность: 01:40:48
Перевод: Любительский (одноголосый) [VANO]
Режиссер: Сэм Фридлендер

В Ролях:


Джессика Лаундес (Suzanne), Ребекка Ромейн (Sally), Стэнли Туччи, Патрик Варбертон (Bryce), Марша Гей Харден, Джейма Мейс (April), Тэй Диггз, Генри Уинклер (Stanley Warner), Молли Шеннон (Emily McCoy), Джейсон Александер (Larry's Dad), Иэн Гомес (Felder), Энтони Руйвивар (Flight School Administrator)

Описание:
Фильм расскажет о стюарде, который решает спасти ситуацию, когда авиакомпания, на которую он работает, решает уволить всех стюардов в качестве меры сокращения расходов.

  • Мировая премьера:5 июня 2015

    ТЕХ.ДАННЫЕ:
    Качество: HDRip
    Формат: AVI
    Видео: XviD, 720x384 (1.875), 1847 kbps, 23,976 fps, 0,279 bpp
    Аудио: AC3 / 2.0 / 48 kHz / 128 kbps / 16 bit


    General
    Complete name : D:\Торенты\Larr1.Gay.S3uaRd.0tstu5nik.2015.L1.HDRip.avi
    Format : AVI
    Format/Info : Audio Video Interleave
    File size : 1.45 GiB
    Duration : 1h 40mn
    Overall bit rate : 2 066 Kbps
    Writing application : VirtualDubMod 1.5.10.3 | www.virtualdub-fr.org || (build 2550/release)
    Writing library : VirtualDubMod build 2550/release

    Video
    ID : 0
    Format : MPEG-4 Visual
    Format profile : Advanced Simple@L5
    Format settings, BVOP : 2
    Format settings, QPel : No
    Format settings, GMC : No warppoints
    Format settings, Matrix : Default (MPEG)
    Codec ID : XVID
    Codec ID/Hint : XviD
    Duration : 1h 40mn
    Bit rate : 1 848 Kbps
    Width : 720 pixels
    Height : 384 pixels
    Display aspect ratio : 1.875
    Frame rate : 23.976 fps
    Color space : YUV
    Chroma subsampling : 4:2:0
    Bit depth : 8 bits
    Scan type : Progressive
    Compression mode : Lossy
    Bits/(Pixel*Frame) : 0.279
    Stream size : 1.30 GiB (89%)
    Writing library : XviD 1.2.1 (UTC 2008-12-04)

    Audio
    ID : 1
    Format : AC-3
    Format/Info : Audio Coding 3
    Mode extension : CM (complete main)
    Codec ID : 2000
    Duration : 1h 40mn
    Bit rate mode : Constant
    Bit rate : 128 Kbps
    Channel(s) : 2 channels
    Channel positions : Front: L R
    Sampling rate : 48.0 KHz
    Bit depth : 16 bits
    Compression mode : Lossy
    Stream size : 92.3 MiB (6%)
    Alignment : Split accross interleaves
    Скриншоты:

    © Оформление by .::Ворон::.
    pb.wtf



  • Скачать Ларри Гэй: Стюард-отступник через торрент http://pic.kartinco.top/images/6/ordi9.jpg Скачать фильм Ларри Гэй: Стюард-отступник через торрент бесплантно в хорошем качестве Описание: Фильм расскажет о стюарде, который решает спасти ситуацию, когда авиакомпания, на которую он работает, решает уволить всех ... 8.5 10 6
    Торрент: Зарегистрирован [2015-11-27 04:18] · скачан: 98 раз
    Статус: T временная
    Размер: 1.45 GB
    Как cкачать? Как скачать Ларри Гэй: Стюард-отступник через торрент | qTorrent

    28-11-2019 20:33  

    Отключить всю рекламу на сайте

      Дорогой пользователь! Огромная просьба, поблагодарите релизера, оцените раздачу и оставьте свои комментарий, если Вы скачали Ларри Гэй: Стюард-отступник через торрент бесплатно! Внесите свою лепту в развитие PiratBit!
      Комментировать посты могут только пользователи прошедшие не сложную регистрацию
      Показать сообщения:    

      Ларри Гэй: Стюард-отступник через торрент
      Скачать бесплатно Ларри Гэй: Стюард-отступник
      Ларри Гэй: Стюард-отступник скачать торрент
      Ларри Гэй: Стюард-отступник смотреть онлайн
      Cкачать фильм Ларри Гэй: Стюард-отступник бесплатно
      Ларри Гэй: Стюард-отступник скачать торрент в хорошем качестве
      Ларри Гэй: Стюард-отступник смотреть онлайн бесплатно в хорошем качестве


      Вы не можете начинать темы
      Вы не можете отвечать на сообщения
      Вы не можете редактировать свои сообщения
      Вы не можете удалять свои сообщения
      Вы не можете голосовать в опросах
      Вы не можете прикреплять файлы к сообщениям
      Вы можете скачивать файлы