Ссылка на приватное зеркало нашего сайта всего за 1$. Внимание количество ограничено!!!

2 сезон

iTunes

1 сезон

1

2 сезон

2 сезон

iTunes

1 сезон

RePack

30

Новинка

ВАЖНО

ИГРА 18+

pack

RePack

MK11
pack

Забери бонус

RePack

jed

!!Акция!!

Alien_Rage

RePack

fifa19

RePack

Assassins Creed: Odyssey

RePack

NEED FOR SPEED™ PAYBACK

4 сезон

9 сезон

Бесстыжие 9 сезон

Все сериалы

все сериалы на PB.wtf

RePack

FAR CRY 5
  

Лес / The Woods (Корин Харди) [2015, ужасы, WEB-DLRip, Любительский (двухголосый)[Sunshine Studio] pb.wtf

Лес через торрент pb.wtf

Размер: 1.45 GB | Добавлен: 4 года 11 мес. назад | Торрент скачан:237 раз
Скачать  

27-11-2015 04:29 Лес Скачать торрент  


Лес / The Woods
««Nature has a dark side»»

ИНФОРМАЦИЯ:
Год выпуска:2015
Страна: Великобритания, США, Ирландия
Жанр: ужасы
Продолжительность: 01:36:51
Перевод: Любительский (двухголосый)[Sunshine Studio]
Режиссер: Корин Харди

В Ролях:


Джозеф Моул (Adam Hitchens), Бояна Новакович (Clare Hitchens), Майкл МакЭлхаттон (Colm Donnelly), Гари Лайдон (Doyle), Стюарт Грэхэм (Contractor Paul Williams), Конор Крэйг Стефенс (Sinuous Hallow), Joss Wyre (Small Hallow), Шон Тайрел (Crawler Hallow 1), James Meryk (Crawler Hallow 2), Билли Трэйнор (Angry Woman 1), Алан Арчболд (Radio Reporter), Люк Уолш (Colm's Son)

Описание:
Глубоко во тьме уединенных лесов сельской Ирландии обитает древнее зло. Суеверные местные жители боятся проклятых существ, ведущих охоту на заблудших, поэтому эти места хранятся в строжайшем секрете от цивилизации. Но когда защитник природных ресурсов вместе со своей женой и маленьким ребенком приезжает из Лондона, чтобы рассмотреть земли для будущего строительства, то его действия невольно тревожат орду демонических сил...

  • Мировая премьера:25 января 2015

    ТЕХ.ДАННЫЕ:
    Качество: WEB-DLRip
    Формат: AVI
    Видео: XviD, 720x304 (2.35:1), 1864 kbps, 24 fps, 0,355 bpp
    Аудио: AC3 / 2.0 / 48 kHz / 192 kbps / 16 bit


    General
    Complete name : D:\Торенты\The.Hall0w.2015.L2.WEB-DLRip.avi
    Format : AVI
    Format/Info : Audio Video Interleave
    File size : 1.45 GiB
    Duration : 1h 36mn
    Overall bit rate : 2 150 Kbps
    Writing application : VirtualDubMod 1.5.10.3 | www.virtualdub-fr.org || (build 2550/release)
    Writing library : VirtualDubMod build 2550/release

    Video
    ID : 0
    Format : MPEG-4 Visual
    Format profile : Advanced Simple@L5
    Format settings, BVOP : 2
    Format settings, QPel : No
    Format settings, GMC : No warppoints
    Format settings, Matrix : Default (MPEG)
    Codec ID : XVID
    Codec ID/Hint : XviD
    Duration : 1h 36mn
    Bit rate : 1 864 Kbps
    Width : 720 pixels
    Height : 304 pixels
    Display aspect ratio : 2.35:1
    Frame rate : 24.000 fps
    Color space : YUV
    Chroma subsampling : 4:2:0
    Bit depth : 8 bits
    Scan type : Progressive
    Compression mode : Lossy
    Bits/(Pixel*Frame) : 0.355
    Stream size : 1.26 GiB (87%)
    Writing library : XviD 1.2.1 (UTC 2008-12-04)

    Audio
    ID : 1
    Format : AC-3
    Format/Info : Audio Coding 3
    Mode extension : CM (complete main)
    Codec ID : 2000
    Duration : 1h 36mn
    Bit rate mode : Constant
    Bit rate : 192 Kbps
    Channel(s) : 2 channels
    Channel positions : Front: L R
    Sampling rate : 48.0 KHz
    Bit depth : 16 bits
    Compression mode : Lossy
    Stream size : 133 MiB (9%)
    Alignment : Split accross interleaves
    Скриншоты:



    © Оформление by .::Ворон::.
    pb.wtf



  • Скачать Лес через торрент http://pic.kartinco.top/images/6/ordi9.jpg Скачать фильм Лес через торрент бесплантно в хорошем качестве Описание: Глубоко во тьме уединенных лесов сельской Ирландии обитает древнее зло. Суеверные местные жители боятся проклятых существ, ... 7.8 10 8
    Info! Золотая раздача, скачанное не засчитывается.
    Торрент: Зарегистрирован [2015-11-27 04:29] · скачан: 237 раз
    Статус: T временная
    Размер: 1.45 GB
    Как cкачать? Как скачать Лес через торрент | qTorrent

    % Раздел Тема Автор DL S | L
    Фильмы 2019-2020 [DVDrip, WEB-DLRip, HDrip] (DUB, MVO) [ 1.42 GB ] Проклятый лес / Ведьмы в лесу / Witches in the Woods [2019 BDRip] MVO Twi7ter Скачать
    8 | 0
    T Релизы по Парсеру [Игры, Сериалы и Фильмы и другое...] [ 1.45 GB ] Никто сегодня не спит в лесу / В лесу сегодня не уснет никто / W lesie dzis nie zasnie nikt / Nobody Sleeps in the Woods Tonight [2020 WEB-DLRip] VO killermax2013 Скачать
    2 | 0
    Фильмы [HD 720p, 1080p] (Хороший звук DUB, MVO) [ 10.48 GB ] Проклятый лес / Ведьмы в лесу / Witches in the Woods [2019 BDRip 1080p] MVO bober100 Скачать
    2 | 0
    Зарубежные сериалы [ 12.38 GB ] В густом лесу / Чаща / The Woods / Сезон: 1 / Серии: 1-6 из 6 [2020 WEB-DL 1080p] 2xMVO [AlexFilm NewStudio] bober100 Скачать
    1 | 0
    Зарубежные сериалы [ 8.4 GB ] В густом лесу / Чаща / The Woods / Сезон: 1 / Серии: 1-6 из 6 [2020 WEB-DL 720p] 2xMVO [AlexFilm NewStudio] bober100 Скачать
    2 | 0
    Фильмы [HD 720p, 1080p] (Хороший звук DUB, MVO) [ 3.64 GB ] Тёмный лес / The Woods [2006 BDRip 720p by msltel] MVO DVO msltel Скачать
    1 | 0
    Фильмы 2006-2008 [ 2.13 GB ] Тёмный лес / The Woods [2006 BDRip-AVC by msltel] MVO DVO msltel Скачать
    1 | 0

    28-11-2019 20:33  

    Отключить всю рекламу на сайте

    27-11-2015 05:49 Лес Скачать торрент  

    Первый нах. Поглядим. спасибо.pb.wtf



      Дорогой пользователь! Огромная просьба, поблагодарите релизера, оцените раздачу и оставьте свои комментарий, если Вы скачали Лес через торрент бесплатно! Внесите свою лепту в развитие PiratBit!
      Комментировать посты могут только пользователи прошедшие не сложную регистрацию
      Показать сообщения:    

      Лес через торрент
      Скачать бесплатно Лес
      Лес скачать торрент
      Лес смотреть онлайн
      Cкачать фильм Лес бесплатно
      Лес скачать торрент в хорошем качестве
      Лес смотреть онлайн бесплатно в хорошем качестве


      Вы не можете начинать темы
      Вы не можете отвечать на сообщения
      Вы не можете редактировать свои сообщения
      Вы не можете удалять свои сообщения
      Вы не можете голосовать в опросах
      Вы не можете прикреплять файлы к сообщениям
      Вы можете скачивать файлы