Ссылка на приватное зеркало нашего сайта всего за 1$. Внимание количество ограничено!!!

2 сезон

iTunes

1 сезон

1

iTunes

iTunes

iTunes

1 сезон

RePack

30

ИГРА 18+

pack

ВАЖНО

!!Акция!!

Alien_RageХит недели

RePack

MK11
pack

Забери бонус

RePack

jed

!!Акция!!

Alien_Rage

RePack

fifa19

RePack

Assassins Creed: Odyssey

RePack

NEED FOR SPEED™ PAYBACK

4 сезон

9 сезон

Бесстыжие 9 сезон

Все сериалы

все сериалы на PB.wtf

RePack

FAR CRY 5
  

Приключения Пикси / Pixies (Шон Патрик О’Рейли) [2015 г., мультфильм, комедия, WEB-DLRip, Дубляж] iTunes pb.wtf

Приключения Пикси через торрент pb.wtf

Размер: 1.37 GB | Добавлен: 4 года 11 мес. назад | Торрент скачан:415 раз
Скачать  

27-11-2015 08:53 Приключения Пикси Скачать торрент  

Приключения Пикси / Pixies
Год выпуска: 2015
Страна: Канада
Жанр: мультфильм, комедия
Продолжительность: 01:17:29
Перевод: Дубляж - [Лицензия / iTunes]

Режиссер: Шон Патрик О’Рейли

Премьера в мире: 5 июня 2015, ...
Премьера (РФ): 29 октября 2015, «Парадиз»



В ролях: Алекса ПенаВега, Карлос ПенаВега, Билл Пэкстон, Кристофер Пламмер, Джофф Густафссон, Элисон Вандзура, Дэвид Милчард, Кифер О’Рейли, Шон Патрик О’Рейли, Эрик Поллинс

Описание: Смешные шалости и хулиганские проказы пиксиков, волшебных эльфов, которые обычно живут глубоко под землей, перевернули жизнь обычного парня Джо Бека вверх дном.

Качество: WEB-DLRip
Формат: AVI
Видео кодек: XviD
Аудио кодек: AC3
Видео: 1940 kb/s, 720x400 (16:9), 24.000 fps, 0.281 bpp
Аудио#1 Rus: AC3, 48 KHz, 6 ch, 384 kb/s - Русский
Аудио#2 Eng: AC3, 48 KHz, 2 ch, 192 kb/s - Оригинал английский
скриншот   скриншот   скриншот   скриншот  

General
Complete name : C:\Users\tut\Desktop\Priklu4eiya.Piksi.2015.D.WEBDLRip.avi
Format : AVI
Format/Info : Audio Video Interleave
File size : 1.37 GiB
Duration : 1h 17mn
Overall bit rate : 2 530 Kbps
Writing application : VirtualDubMod 1.5.10.2 (build 2540/release)
Writing library : VirtualDubMod build 2540/release

Video
ID : 0
Format : MPEG-4 Visual
Format profile : Advanced Simple@L5
Format settings, BVOP : 2
Format settings, QPel : No
Format settings, GMC : No warppoints
Format settings, Matrix : Default (MPEG)
Codec ID : XVID
Codec ID/Hint : XviD
Duration : 1h 17mn
Bit rate : 1 940 Kbps
Width : 720 pixels
Height : 400 pixels
Display aspect ratio : 16:9
Frame rate : 24.000 fps
Color space : YUV
Chroma subsampling : 4:2:0
Bit depth : 8 bits
Scan type : Progressive
Compression mode : Lossy
Bits/(Pixel*Frame) : 0.281
Stream size : 1.05 GiB (77%)
Writing library : XviD 1.2.1 (UTC 2008-12-04)

Audio #1
ID : 1
Format : AC-3
Format/Info : Audio Coding 3
Mode extension : CM (complete main)
Format settings, Endianness : Big
Codec ID : 2000
Duration : 1h 17mn
Bit rate mode : Constant
Bit rate : 384 Kbps
Channel(s) : 6 channels
Channel positions : Front: L C R, Side: L R, LFE
Sampling rate : 48.0 KHz
Compression mode : Lossy
Stream size : 213 MiB (15%)
Alignment : Split accross interleaves
Interleave, duration : 42 ms (1.00 video frame)
Interleave, preload duratio : 500 ms

Audio #2
ID : 2
Format : AC-3
Format/Info : Audio Coding 3
Mode extension : CM (complete main)
Format settings, Endianness : Big
Codec ID : 2000
Duration : 1h 17mn
Bit rate mode : Constant
Bit rate : 192 Kbps
Channel(s) : 2 channels
Channel positions : Front: L R
Sampling rate : 48.0 KHz
Compression mode : Lossy
Stream size : 106 MiB (8%)
Alignment : Split accross interleaves
Interleave, duration : 42 ms (1.00 video frame)
Interleave, preload duratio : 500 ms[/code]

pb.wtf



Скачать Приключения Пикси через торрент http://pic1.kartinco.top/images/10/yszxh.jpg Скачать фильм Приключения Пикси через торрент бесплантно в хорошем качестве Описание: Смешные шалости и хулиганские проказы пиксиков, волшебных эльфов, которые обычно живут глубоко под землей, перевернули жизнь ... 9.3 10 19
Info! Золотая раздача, скачанное не засчитывается.
Торрент: Зарегистрирован [2015-11-27 08:53] · скачан: 415 раз
Статус: √ проверено
Размер: 1.37 GB
Как cкачать? Как скачать Приключения Пикси через торрент | qTorrent

% Раздел Тема Автор DL S | L
Иностранные мультфильмы [ 1.42 GB ] Пикси / Pixies [2015 мультфильм BDRip] Dub Twi7ter Скачать
1 | 0

28-11-2019 20:33  

Отключить всю рекламу на сайте

    Дорогой пользователь! Огромная просьба, поблагодарите релизера, оцените раздачу и оставьте свои комментарий, если Вы скачали Приключения Пикси через торрент бесплатно! Внесите свою лепту в развитие PiratBit!
    Комментировать посты могут только пользователи прошедшие не сложную регистрацию
    Показать сообщения:    

    Приключения Пикси через торрент
    Скачать бесплатно Приключения Пикси
    Приключения Пикси скачать торрент
    Приключения Пикси смотреть онлайн
    Cкачать фильм Приключения Пикси бесплатно
    Приключения Пикси скачать торрент в хорошем качестве
    Приключения Пикси смотреть онлайн бесплатно в хорошем качестве


    Вы не можете начинать темы
    Вы не можете отвечать на сообщения
    Вы не можете редактировать свои сообщения
    Вы не можете удалять свои сообщения
    Вы не можете голосовать в опросах
    Вы не можете прикреплять файлы к сообщениям
    Вы можете скачивать файлы