Ссылка на приватное зеркало нашего сайта всего за 1$. Внимание количество ограничено!!!

2 сезон

iTunes

1 сезон

1

2 сезон

2 сезон

iTunes

1 сезон

RePack

30

Новинка

ВАЖНО

ИГРА 18+

pack

RePack

MK11
pack

Забери бонус

RePack

jed

!!Акция!!

Alien_Rage

RePack

fifa19

RePack

Assassins Creed: Odyssey

RePack

NEED FOR SPEED™ PAYBACK

4 сезон

9 сезон

Бесстыжие 9 сезон

Все сериалы

все сериалы на PB.wtf

RePack

FAR CRY 5
  

Близкое расстояние / Close Range (Айзек Флорентайн) [2015, боевик, криминал, WEB-DL 1080p, Любительский (двухголосый) [Parovoz Production] pb.wtf

Близкое расстояние через торрент pb.wtf

Размер: 3.15 GB | Добавлен: 4 года 11 мес. назад | Торрент скачан:275 раз
Скачать  

27-11-2015 15:15 Близкое расстояние Скачать торрент  

Близкое расстояние / Close Range«Colton MacReady...is coming home»

  • Год выхода: 2015
  • Жанр: боевик, криминал
  • Страна: США
  • Продолжительность: 01:21:54
  • Перевод: Любительский (двухголосый) [Parovoz Production]
  • Режиссер: Айзек Флорентайн
  • В ролях:

    Скотт Эдкинс (Colton MacReady), Ник Чинланд (Sheriff Jasper Calloway), Кэйтлин Китс (Angela Reynolds), Джэйк Ла Ботц (Walt Reynolds), Тони Перес (Fernando Garcia), Мэдисон Лоулор (Hailey Reynolds), Хулиен Цезарио (Ignacio), Джимми Чхиу (Zavala), Рэй Диас (Victor Garcia), Роберт Дилл (Reina), Скотт Эванс (Deputy Logan), Энтони Л. Фернандес (Lobo)


  • Вызволив свою племянницу из лап могущественного картеля, Колтон Макреди вступает в беспощадный бой во имя спасения членов собственной семьи, ставших теперь мишенями для преступников. Его ферму, расположенную в провинциальной глубинке, осаждают жаждущие мести наёмники картеля, прихватившие с собой продажного местного шерифа с командой помощников, которые обеспечат гарантию того, что в ближайшее время к Макреди помощь не прибудет. Начинается безостановочный и методичный штурм фермы, и Колтону ради защиты своих близких и собственного спасения предстоит до конца пройти этот «марафон на выживание».

  • Качество: WEB-DL 1080p
  • Формат: MKV
  • Видео кодек: AVC
  • Аудио кодек: AC3
  • Видео: AVC, 1912x1072 (16:9), 4819 kbps, 25 fps, 0,094 bpp
  • Аудио №1: русский / AC3 / 2.0 / 48 kHz / 384 kbps / 16 bit ||
  • Аудио №2: английский / AC3 / 2.0 / 48 kHz / 192 kbps / 16 bit
  • Навигация по главам: есть

    Код:

    General
    Unique ID                                : 207789847587093522909633040692536906542 (0x9C52DE74367047A48D16F0506C5B932E)
    Complete name                            : H:\Cl0se.RanGe.2015.L2.WEB-DL.1080p.mkv
    Format                                   : Matroska
    Format version                           : Version 4 / Version 2
    File size                                : 3.15 GiB
    Duration                                 : 1h 21mn
    Overall bit rate                         : 5 505 Kbps
    Movie name                               : EVO
    Encoded date                             : UTC 2015-11-26 20:16:14
    Writing application                      : mkvmerge v8.5.2 ('Crosses') 64bit
    Writing library                          : libebml v1.3.3 + libmatroska v1.4.4

    Video
    ID                                       : 1
    Format                                   : AVC
    Format/Info                              : Advanced Video Codec
    Format profile                           : High@L4.0
    Format settings, CABAC                   : Yes
    Format settings, ReFrames                : 4 frames
    Codec ID                                 : V_MPEG4/ISO/AVC
    Duration                                 : 1h 21mn
    Bit rate                                 : 4 819 Kbps
    Width                                    : 1 912 pixels
    Height                                   : 1 072 pixels
    Display aspect ratio                     : 16:9
    Frame rate                               : 25.000 fps
    Color space                              : YUV
    Chroma subsampling                       : 4:2:0
    Bit depth                                : 8 bits
    Scan type                                : Progressive
    Bits/(Pixel*Frame)                       : 0.094
    Stream size                              : 2.76 GiB (88%)
    Language                                 : Spanish
    Default                                  : Yes
    Forced                                   : No
    Color primaries                          : BT.709-5, BT.1361, IEC 61966-2-4, SMPTE RP177
    Transfer characteristics                 : BT.709-5, BT.1361
    Matrix coefficients                      : BT.709-5, BT.1361, IEC 61966-2-4 709, SMPTE RP177

    Audio #1
    ID                                       : 2
    Format                                   : AC-3
    Format/Info                              : Audio Coding 3
    Mode extension                           : CM (complete main)
    Codec ID                                 : A_AC3
    Duration                                 : 1h 21mn
    Bit rate mode                            : Constant
    Bit rate                                 : 384 Kbps
    Channel(s)                               : 2 channels
    Channel positions                        : Front: L R
    Sampling rate                            : 48.0 KHz
    Bit depth                                : 16 bits
    Compression mode                         : Lossy
    Stream size                              : 225 MiB (7%)
    Language                                 : Russian
    Default                                  : Yes
    Forced                                   : No

    Audio #2
    ID                                       : 3
    Format                                   : AC-3
    Format/Info                              : Audio Coding 3
    Mode extension                           : CM (complete main)
    Codec ID                                 : A_AC3
    Duration                                 : 1h 21mn
    Bit rate mode                            : Constant
    Bit rate                                 : 192 Kbps
    Channel(s)                               : 2 channels
    Channel positions                        : Front: L R
    Sampling rate                            : 48.0 KHz
    Bit depth                                : 16 bits
    Compression mode                         : Lossy
    Stream size                              : 112 MiB (3%)
    Language                                 : English
    Default                                  : No
    Forced                                   : No

    Text
    ID                                       : 4
    Format                                   : UTF-8
    Codec ID                                 : S_TEXT/UTF8
    Codec ID/Info                            : UTF-8 Plain Text
    Language                                 : Russian
    Default                                  : Yes
    Forced                                   : Yes

    Menu
    00:00:00.000                             : en:1
    00:08:48.000                             : en:2
    00:13:27.000                             : en:3
    00:19:45.000                             : en:4
    00:27:29.000                             : en:5
    00:34:30.000                             : en:6
    00:42:38.000                             : en:7
    00:47:19.000                             : en:8
    00:54:07.000                             : en:9
    01:01:29.000                             : en:10
    01:08:29.000                             : en:11
    01:16:23.000                             : en:12

    Скриншоты:


    © Оформление by -Lexx- pb.wtf



  • Скачать Близкое расстояние через торрент http://pic.kartinco.top/images/6/stazu.jpg Скачать фильм Близкое расстояние через торрент бесплантно в хорошем качестве qw.png Вызволив свою племянницу из лап могущественного картеля, Колтон Макреди вступает в беспощадный бой во имя спасения членов ... 9 10 12
    Торрент: Зарегистрирован [2015-11-27 15:15] · скачан: 275 раз
    Статус: T временная
    Размер: 3.15 GB
    Как cкачать? Как скачать Близкое расстояние через торрент | qTorrent

    % Раздел Тема Автор DL S | L
    T Фильмы 2015 (Звук TS, Cam, VO, DVO) [ 1.37 GB ] Близкое расстояние / Close Range [2015 WEB-DLRip] DVO Ворон Скачать
    1 | 0
    Фильмы без перевода [ 1.09 GB ] Близкое расстояние / Close Range [2015 WEB-DLRip] makarevich Скачать
    1 | 0

    28-11-2019 20:33  

    Отключить всю рекламу на сайте

      Дорогой пользователь! Огромная просьба, поблагодарите релизера, оцените раздачу и оставьте свои комментарий, если Вы скачали Близкое расстояние через торрент бесплатно! Внесите свою лепту в развитие PiratBit!
      Комментировать посты могут только пользователи прошедшие не сложную регистрацию
      Показать сообщения:    

      Близкое расстояние через торрент
      Скачать бесплатно Близкое расстояние
      Близкое расстояние скачать торрент
      Близкое расстояние смотреть онлайн
      Cкачать фильм Близкое расстояние бесплатно
      Близкое расстояние скачать торрент в хорошем качестве
      Близкое расстояние смотреть онлайн бесплатно в хорошем качестве


      Вы не можете начинать темы
      Вы не можете отвечать на сообщения
      Вы не можете редактировать свои сообщения
      Вы не можете удалять свои сообщения
      Вы не можете голосовать в опросах
      Вы не можете прикреплять файлы к сообщениям
      Вы можете скачивать файлы