Ссылка на приватное зеркало всего за 1$. Внимание количество ограничено!!!

iTunes

iTunes

iTunes

1

iTunes

iTunes

iTunes

WEBRip

iTunes

30
pack

$ от Little Big

ВАЖНО

!!Акция!!

Alien_RageХит недели

RePack

Resident Evil 21

ИГРА 18+

pack

RePack

jed

!!Акция!!

Alien_Rage

RePack

fifa19

RePack

Assassins Creed: Odyssey

RePack

NEED FOR SPEED™ PAYBACK

4 сезон

9 сезон

Бесстыжие 9 сезон

Все сериалы

все сериалы на PB.wtf

RePack

FAR CRY 5
  

Крепись! / Get Hard (Этан Коэн / Etan Cohen) [2015, комедия, криминал, BDRip-AVC от potroks] [Театральная версия] MVO [iTunes] pb.wtf

Крепись! через торрент pb.wtf

Раздают: 21 [ 185 KB/s ] Качают: 1 [ 100 KB/s ]
Размер: 1.42 GB | Добавлен: 4 года 8 мес. назад | Торрент скачан:778 раз
Скачать  

27-11-2015 15:49 Крепись! Скачать торрент  

Крепись! / Get Hard
«An education in incarceration»
Год выпуска: 2015
Страна: США / Warner Bros. Pictures, Gary Sanchez Productions
Жанр: комедия, криминал
Продолжительность: 01:40:17
Перевод: Профессиональный (многоголосый) [iTunes]
Субтитры: русские (полные + форс.)
Навигация по главам: есть
Режиссер: Этан Коэн / Etan Cohen
В ролях:

Уилл Феррелл (James), Кевин Харт (Darnell), Крэйг Т. Нельсон (Martin), Элисон Бри (Alissa), Эдвина Финдли (Rita), Ариана Нил (Makayla), Эрик Чаварриа (Cecelio), Ти-Ай (Russell), Пол Бен-Виктор (Gayle), Джон Майер (John Mayer), Джон Эйз (Big Mike), Нито Лариоза (Jaoa)
Описание: Богатый менеджер инвестиционного банка осуждён за преступление, которого он не совершал, и готовится к тюрьме. А помогает ему в этом парень, который моет его машину.

Качество: BDRip-AVC
Формат: MKV
Видео кодек: AVC
Аудио кодек: AC3
Видео: 928x522 (16:9), 1637 kbps, 23,976 fps, 0,141 bit/pixel
Аудио: AC3 / 5.1 / 48 kHz / 384 kbps / 16 bit

Релиз группы:
Автор рипа: potroks

Код:

General
Unique ID                   : 215231886202561254544747400396507016971 (0xA1EC2749509A2A01945D5EC65B096F0B)
Complete name               : Krepis'.2015.TC.RUS.BDRip.x264.-HELLYWOOD.mkv
Format                      : Matroska
Format version              : Version 4 / Version 2
File size                   : 1.42 GiB
Duration                    : 1h 40mn
Overall bit rate            : 2 022 Kbps
Movie name                  : Get Hard (2015) - HELLYWOOD
Encoded date                : UTC 2010-02-22 21:41:31
Writing application         : mkvmerge v5.8.0 ('No Sleep / Pillow') built on Sep 30 2012 10:57:14
Writing library             : libebml v1.3.0 + libmatroska v1.4.0

Video
ID                          : 1
Format                      : AVC
Format/Info                 : Advanced Video Codec
Format profile              : High@L4.1
Format settings, CABAC      : Yes
Format settings, ReFrames   : 12 frames
Codec ID                    : V_MPEG4/ISO/AVC
Duration                    : 1h 40mn
Bit rate                    : 1 637 Kbps
Width                       : 928 pixels
Height                      : 522 pixels
Display aspect ratio        : 16:9
Frame rate mode             : Constant
Frame rate                  : 23.976 fps
Color space                 : YUV
Chroma subsampling          : 4:2:0
Bit depth                   : 8 bits
Scan type                   : Progressive
Bits/(Pixel*Frame)          : 0.141
Stream size                 : 1.12 GiB (79%)
Title                       : potroks
Writing library             : x264 core 146 r2538 121396c
Encoding settings           : cabac=1 / ref=12 / deblock=1:-2:-2 / analyse=0x3:0x113 / me=umh / subme=11 / psy=1 / psy_rd=1.00:0.04 / mixed_ref=1 / me_range=48 / chroma_me=1 / trellis=2 / 8x8dct=1 / cqm=0 / deadzone=21,11 / fast_pskip=0 / chroma_qp_offset=-3 / threads=9 / lookahead_threads=2 / sliced_threads=0 / nr=0 / decimate=1 / interlaced=0 / bluray_compat=0 / constrained_intra=0 / bframes=13 / b_pyramid=2 / b_adapt=2 / b_bias=0 / direct=3 / weightb=1 / open_gop=0 / weightp=2 / keyint=250 / keyint_min=23 / scenecut=40 / intra_refresh=0 / rc_lookahead=60 / rc=2pass / mbtree=0 / bitrate=1637 / ratetol=1.0 / qcomp=0.70 / qpmin=0 / qpmax=69 / qpstep=4 / cplxblur=20.0 / qblur=0.5 / vbv_maxrate=14000 / vbv_bufsize=14000 / nal_hrd=none / filler=0 / ip_ratio=1.35 / pb_ratio=1.25 / aq=1:0.80
Language                    : English
Default                     : Yes
Forced                      : No

Audio
ID                          : 2
Format                      : AC-3
Format/Info                 : Audio Coding 3
Mode extension              : CM (complete main)
Format settings, Endianness : Big
Codec ID                    : A_AC3
Duration                    : 1h 40mn
Bit rate mode               : Constant
Bit rate                    : 384 Kbps
Channel(s)                  : 6 channels
Channel positions           : Front: L C R, Side: L R, LFE
Sampling rate               : 48.0 KHz
Compression mode            : Lossy
Stream size                 : 275 MiB (19%)
Title                       : MVO | DD 5.1 @ 384 kbps - iTunes
Language                    : Russian
Default                     : Yes
Forced                      : No

Text #1
ID                          : 3
Format                      : UTF-8
Codec ID                    : S_TEXT/UTF8
Codec ID/Info               : UTF-8 Plain Text
Title                       : Forced
Language                    : Russian
Default                     : Yes
Forced                      : No

Text #2
ID                          : 4
Format                      : UTF-8
Codec ID                    : S_TEXT/UTF8
Codec ID/Info               : UTF-8 Plain Text
Title                       : iTunes
Language                    : Russian
Default                     : No
Forced                      : No

Menu
00:00:00.000                : en:(01)00:00:00:000
00:11:31.273                : en:(02)00:11:31:273
00:20:53.627                : en:(03)00:20:53:627
00:28:42.387                : en:(04)00:28:42:387
00:40:57.329                : en:(05)00:40:57:329
00:50:53.633                : en:(06)00:50:53:633
01:00:06.561                : en:(07)01:00:06:561
01:09:33.919                : en:(08)01:09:33:919
01:19:09.661                : en:(09)01:19:09:661
01:31:30.151                : en:(10)01:31:30:151
01:36:36.415                : en:(11)01:36:36:415
01:40:18.345                : en:(12)01:40:18:345

pb.wtf



Скачать Крепись! через торрент http://i66.fastpic.ru/big/2015/1127/a4/2bf74acb5d5e43818da5e239330170a4.png Скачать фильм Крепись! через торрент бесплантно в хорошем качестве Описание: Богатый менеджер инвестиционного банка осуждён за преступление, которого он не совершал, и готовится к тюрьме. А помогает ему в ... 9.2 10 10
Торрент: Зарегистрирован [2015-11-27 15:49] · скачан: 778 раз
Статус: √ проверено
Размер: 1.42 GB
Как cкачать? Как скачать Крепись! через торрент | qTorrent

% Раздел Тема Автор DL S | L
Ultra HD (UHD: 2K, 4K, 8K) — видео сверхвысокой чёткости [ 27.04 GB ] Крепись! / Get Hard [2015 UHD WEBRip 2160p] MVO [Театральная версия] bober100 Скачать
1 | 0

28-11-2019 20:33  

Отключить всю рекламу на сайте

27-11-2015 17:56 Крепись! Скачать торрент  

potroks, поправил год выхода фильма. Вопрос конечно спорный, но в Правилах говорится следующее:

Цитата:

1.1.3 Год выхода:

Год выхода фильма на экраны.

То есть, в заголовке и в описании указывается не год окончания работы над фильмом, а именно год выхода на экраны (премьеры).
КиноПоиск

Цитата:

премьера (мир)
16 марта 2015

pb.wtf



04-12-2015 18:13 Крепись! Скачать торрент  

Круто.pb.wtf



    Дорогой пользователь! Огромная просьба, поблагодарите релизера, оцените раздачу и оставьте свои комментарий, если Вы скачали Крепись! через торрент бесплатно! Внесите свою лепту в развитие PiratBit!
    Комментировать посты могут только пользователи прошедшие не сложную регистрацию
    Показать сообщения:    

    Крепись! через торрент
    Скачать бесплатно Крепись!
    Крепись! скачать торрент
    Крепись! смотреть онлайн
    Cкачать фильм Крепись! бесплатно
    Крепись! скачать торрент в хорошем качестве
    Крепись! смотреть онлайн бесплатно в хорошем качестве


    Вы не можете начинать темы
    Вы не можете отвечать на сообщения
    Вы не можете редактировать свои сообщения
    Вы не можете удалять свои сообщения
    Вы не можете голосовать в опросах
    Вы не можете прикреплять файлы к сообщениям
    Вы можете скачивать файлы