Ссылка на приватное зеркало нашего сайта всего за 1$. Внимание количество ограничено!!!

2 сезон

iTunes

1 сезон

1

iTunes

iTunes

iTunes

1 сезон

RePack

30

ИГРА 18+

pack

ВАЖНО

!!Акция!!

Alien_RageХит недели

RePack

MK11
pack

Забери бонус

RePack

jed

!!Акция!!

Alien_Rage

RePack

fifa19

RePack

Assassins Creed: Odyssey

RePack

NEED FOR SPEED™ PAYBACK

4 сезон

9 сезон

Бесстыжие 9 сезон

Все сериалы

все сериалы на PB.wtf

RePack

FAR CRY 5
  

Казино / Casino (Мартин Скорсезе ) [1995, драма, криминал, биография, BDRip 720p от _denis_100 / NNNB] 2xMVO, DVO, 6xAVO pb.wtf

Казино через торрент pb.wtf

Размер: 13.11 GB | Добавлен: 4 года 10 мес. назад | Торрент скачан:434 раза
Скачать  

27-11-2015 17:48 Казино Скачать торрент  

Казино / Casino
«Риск. Влacть. Искушение»


Год выпуска: 1995
Страна: США, Франция
Жанр: драма, криминал, биография
Продолжительность: 02:58:33
Перевод: Профессиональный многоголосый, Профессиональный (двухголосый), Авторский (одноголосый)
Субтитры: русские (Forced), русские (Kinomania), русские (Tycoon), английские (SDH)
Режиссер: Мартин Скорсезе
В ролях: Роберт Де Ниро , Шэрон Стоун , Джо Пеши , Джеймс Вудс , Дон Риклз , Алан Кинг , Кевин Поллак , Л. К. Джонс , Дик Смотерз , Фрэнк Винсент , Джон Блум , Паскуале Кайано
Описание:
Никто не может сравниться с Сэмом Ротстином. Никто не умеет зарабатывать деньги, как он. Никто не умеет работать так самоотверженно и аккуратно, как трудяга Сэм. За свои неоспоримые достоинства Ротстин получил кличку «Ас». И именно поэтому боссы мафии решили отправить Аса заправлять огромным шикарным казино в Лас-Вегасе. А чтобы Сэму никто не мешал работать, мафиози отправили вслед за Асом друга детства Ротстина - Никки Санторо, отпетого бандита и безжалостного головореза.
В Лас-Вегасе Ас как всегда с блеском выполнял свою работу: Казино процветало, водопад денег беспрестанно лился в карманы довольных гангстеров-покровителей. Городские заправилы находились на довольствии у мафии, полицейские и суды были куплены, и, казалось, ничто не может омрачить жизнь Аса. Но Господь распорядился иначе. Несокрушимой империи Сэма было суждено утонуть в трагедии и крови.

R - Лицам до 17 лет обязательно присутствие взрослого
Качество: BDRip 720p
Контейнер (Расширение): MKV
Видео: 1280x544, 5840 Кбит/сек, 23,976 кадр/сек, 0,350 Бит/[Пиксели*Кадры]
Аудио №1: русский / AC3 / 5.1 / 48 kHz / 448 kbps / 16 bit |Профессиональный двухголосый, Blu-ray CEE|
Аудио №2: русский / AC3 / 5.1 / 48 kHz / 640 kbps / 16 bit |Авторский, А.Гаврилов|
Аудио №3: русский / AC3 / 5.1 / 48 kHz / 640 kbps / 16 bit |Авторский, Ю.Живов|
Аудио №4: русский / AC3 / 5.1 / 48 kHz / 640 kbps / 16 bit |Авторский, П.Карцев|
Аудио №5: русский / AC3 / 5.1 / 48 kHz / 640 kbps / 16 bit |Авторский, Д.Штамп| - (ненормативная лексика)
Аудио №6: русский / AC3 / 5.1 / 48 kHz / 448 kbps / 16 bit |Авторский, Е.Гаевский| - (ненормативная лексика)
Аудио №7: русский / AC3 / 2.0 / 48 kHz / 192 kbps / 16 bit |Авторский, С.Визгунов|
Аудио №8: русский / AC3 / 2.0 / 48 kHz / 192 kbps / 16 bit |Профессиональный многоголосый, ОРТ|
Аудио №9: русский / AC3 / 2.0 / 48 kHz / 192 kbps / 16 bit |Профессиональный многоголосый, РЕН ТВ / Культура|
Аудио №10: английский / AC3 / 5.1 / 48 kHz / 640 kbps / 16 bit
Навигация по главам(Чаптеры): естьАвтор рипа: Сообщество: ← мы в VK
  • Фильм снят по мотивам романа Николаса Пиледжи и Ларри Шандлинга «Казино» (Casino: Love and Honor in Las Vegas, 1995).
  • Слово «Fuck» и его производные, употребляются в фильме 422 раза - что в среднем, составляет примерно 2,4 раза в минуту.
  • Персонаж Роберта Де Ниро имел реального прототипа Фрэнка «Левшу» Розенталя, который управлял с 1970-х до начала 1980-х казино «Звёздная пыль» (Stardust), «Фримонт» и «Хасьенда».
  • Съёмки фильма проходили в одном из старейших действующих отелей-казино Лас-Вегаса Riviera, который выбрали благодаря нейтральной тематической окраске заведения.
  • Прототипом Ники Санторо (Джо Пеши) послужил Энтони «Тони Муравей» Спилотро, головорез «Чикагского синдиката», убитый по приказу боссов в 1986 году.
  • На 133 минуте фильма Сэм спрашивает жену, где она была, она отвечает, что в Ривьере (это и есть то самое казино, где проходили съёмки фильма).
  • Код:

    Format                                   : Matroska
    Format version                           : Version 2
    File size                                : 13.1 GiB
    Duration                                 : 2h 58mn
    Overall bit rate                         : 10.5 Mbps
    Movie name                               : Casino.(1995).BDRip.720p.[denis100]
    Encoded date                             : UTC 2015-11-27 17:22:51
    Writing application                      : mkvmerge v5.8.0 ('No Sleep / Pillow') built on Sep  2 2012 15:37:04
    Writing library                          : libebml v1.2.3 + libmatroska v1.3.0

    Video
    ID                                       : 1
    Format                                   : AVC
    Format/Info                              : Advanced Video Codec
    Format profile                           : High@L4.1
    Format settings, CABAC                   : Yes
    Format settings, ReFrames                : 11 frames
    Codec ID                                 : V_MPEG4/ISO/AVC
    Duration                                 : 2h 58mn
    Bit rate                                 : 5 840 Kbps
    Width                                    : 1 280 pixels
    Height                                   : 544 pixels
    Display aspect ratio                     : 2.35:1
    Frame rate                               : 23.976 fps
    Color space                              : YUV
    Chroma subsampling                       : 4:2:0
    Bit depth                                : 8 bits
    Scan type                                : Progressive
    Bits/(Pixel*Frame)                       : 0.350
    Stream size                              : 7.03 GiB (54%)
    Title                                    : Casino.(1995).BDRip.720p.[denis100].NNNB
    Writing library                          : x264 core 148 r2638 7599210
    Encoding settings                        : cabac=1 / ref=11 / deblock=1:-3:-3 / analyse=0x3:0x133 / me=umh / subme=11 / psy=1 / psy_rd=1.00:0.05 / mixed_ref=1 / me_range=32 / chroma_me=1 / trellis=2 / 8x8dct=1 / cqm=0 / deadzone=21,11 / fast_pskip=0 / chroma_qp_offset=-3 / threads=6 / lookahead_threads=1 / sliced_threads=0 / nr=0 / decimate=1 / interlaced=0 / bluray_compat=0 / constrained_intra=0 / bframes=10 / b_pyramid=2 / b_adapt=2 / b_bias=0 / direct=3 / weightb=1 / open_gop=0 / weightp=2 / keyint=240 / keyint_min=23 / scenecut=40 / intra_refresh=0 / rc=2pass / mbtree=0 / bitrate=5840 / ratetol=1.0 / qcomp=0.60 / qpmin=0 / qpmax=69 / qpstep=4 / cplxblur=20.0 / qblur=0.5 / ip_ratio=1.40 / pb_ratio=1.30 / aq=1:0.90
    Language                                 : English
    Default                                  : Yes
    Forced                                   : No

    Audio #1
    ID                                       : 2
    Format                                   : AC-3
    Format/Info                              : Audio Coding 3
    Mode extension                           : CM (complete main)
    Codec ID                                 : A_AC3
    Duration                                 : 2h 58mn
    Bit rate mode                            : Constant
    Bit rate                                 : 448 Kbps
    Channel(s)                               : 6 channels
    Channel positions                        : Front: L C R, Side: L R, LFE
    Sampling rate                            : 48.0 KHz
    Bit depth                                : 16 bits
    Compression mode                         : Lossy
    Stream size                              : 572 MiB (4%)
    Title                                    : Двухголосый закадровый, Blu-ray CEE
    Language                                 : Russian
    Default                                  : Yes
    Forced                                   : No

    Audio #2
    ID                                       : 3
    Format                                   : AC-3
    Format/Info                              : Audio Coding 3
    Mode extension                           : CM (complete main)
    Codec ID                                 : A_AC3
    Duration                                 : 2h 58mn
    Bit rate mode                            : Constant
    Bit rate                                 : 640 Kbps
    Channel(s)                               : 6 channels
    Channel positions                        : Front: L C R, Side: L R, LFE
    Sampling rate                            : 48.0 KHz
    Bit depth                                : 16 bits
    Compression mode                         : Lossy
    Stream size                              : 817 MiB (6%)
    Title                                    : Авторский, А.Гаврилов
    Language                                 : Russian
    Default                                  : No
    Forced                                   : No

    Audio #3
    ID                                       : 4
    Format                                   : AC-3
    Format/Info                              : Audio Coding 3
    Mode extension                           : CM (complete main)
    Codec ID                                 : A_AC3
    Duration                                 : 2h 58mn
    Bit rate mode                            : Constant
    Bit rate                                 : 640 Kbps
    Channel(s)                               : 6 channels
    Channel positions                        : Front: L C R, Side: L R, LFE
    Sampling rate                            : 48.0 KHz
    Bit depth                                : 16 bits
    Compression mode                         : Lossy
    Stream size                              : 817 MiB (6%)
    Title                                    : Авторский, Ю.Живов
    Language                                 : Russian
    Default                                  : No
    Forced                                   : No

    Audio #4
    ID                                       : 5
    Format                                   : AC-3
    Format/Info                              : Audio Coding 3
    Mode extension                           : CM (complete main)
    Codec ID                                 : A_AC3
    Duration                                 : 2h 58mn
    Bit rate mode                            : Constant
    Bit rate                                 : 640 Kbps
    Channel(s)                               : 6 channels
    Channel positions                        : Front: L C R, Side: L R, LFE
    Sampling rate                            : 48.0 KHz
    Bit depth                                : 16 bits
    Compression mode                         : Lossy
    Stream size                              : 817 MiB (6%)
    Title                                    : Авторский, П.Карцев
    Language                                 : Russian
    Default                                  : No
    Forced                                   : No

    Audio #5
    ID                                       : 6
    Format                                   : AC-3
    Format/Info                              : Audio Coding 3
    Mode extension                           : CM (complete main)
    Codec ID                                 : A_AC3
    Duration                                 : 2h 58mn
    Bit rate mode                            : Constant
    Bit rate                                 : 640 Kbps
    Channel(s)                               : 6 channels
    Channel positions                        : Front: L C R, Side: L R, LFE
    Sampling rate                            : 48.0 KHz
    Bit depth                                : 16 bits
    Compression mode                         : Lossy
    Stream size                              : 817 MiB (6%)
    Title                                    : Авторский, Д.Штамп
    Language                                 : Russian
    Default                                  : No
    Forced                                   : No

    Audio #6
    ID                                       : 7
    Format                                   : AC-3
    Format/Info                              : Audio Coding 3
    Mode extension                           : CM (complete main)
    Codec ID                                 : A_AC3
    Duration                                 : 2h 58mn
    Bit rate mode                            : Constant
    Bit rate                                 : 448 Kbps
    Channel(s)                               : 6 channels
    Channel positions                        : Front: L C R, Side: L R, LFE
    Sampling rate                            : 48.0 KHz
    Bit depth                                : 16 bits
    Compression mode                         : Lossy
    Stream size                              : 572 MiB (4%)
    Title                                    : Авторский, Е.Гаевский
    Language                                 : Russian
    Default                                  : No
    Forced                                   : No

    Audio #7
    ID                                       : 8
    Format                                   : AC-3
    Format/Info                              : Audio Coding 3
    Mode extension                           : CM (complete main)
    Codec ID                                 : A_AC3
    Duration                                 : 2h 58mn
    Bit rate mode                            : Constant
    Bit rate                                 : 192 Kbps
    Channel(s)                               : 2 channels
    Channel positions                        : Front: L R
    Sampling rate                            : 48.0 KHz
    Bit depth                                : 16 bits
    Compression mode                         : Lossy
    Stream size                              : 245 MiB (2%)
    Title                                    : Авторский, С.Визгунов
    Language                                 : Russian
    Default                                  : No
    Forced                                   : No

    Audio #8
    ID                                       : 9
    Format                                   : AC-3
    Format/Info                              : Audio Coding 3
    Mode extension                           : CM (complete main)
    Codec ID                                 : A_AC3
    Duration                                 : 2h 58mn
    Bit rate mode                            : Constant
    Bit rate                                 : 192 Kbps
    Channel(s)                               : 2 channels
    Channel positions                        : Front: L R
    Sampling rate                            : 48.0 KHz
    Bit depth                                : 16 bits
    Compression mode                         : Lossy
    Stream size                              : 245 MiB (2%)
    Title                                    : Профессиональный многоголосый, ОРТ
    Language                                 : Russian
    Default                                  : No
    Forced                                   : No

    Audio #9
    ID                                       : 10
    Format                                   : AC-3
    Format/Info                              : Audio Coding 3
    Mode extension                           : CM (complete main)
    Codec ID                                 : A_AC3
    Duration                                 : 2h 58mn
    Bit rate mode                            : Constant
    Bit rate                                 : 192 Kbps
    Channel(s)                               : 2 channels
    Channel positions                        : Front: L R
    Sampling rate                            : 48.0 KHz
    Bit depth                                : 16 bits
    Compression mode                         : Lossy
    Stream size                              : 245 MiB (2%)
    Title                                    : Профессиональный многоголосый, РЕН ТВ / Культура
    Language                                 : Russian
    Default                                  : No
    Forced                                   : No

    Audio #10
    ID                                       : 11
    Format                                   : AC-3
    Format/Info                              : Audio Coding 3
    Mode extension                           : CM (complete main)
    Codec ID                                 : A_AC3
    Duration                                 : 2h 58mn
    Bit rate mode                            : Constant
    Bit rate                                 : 640 Kbps
    Channel(s)                               : 6 channels
    Channel positions                        : Front: L C R, Side: L R, LFE
    Sampling rate                            : 48.0 KHz
    Bit depth                                : 16 bits
    Compression mode                         : Lossy
    Stream size                              : 817 MiB (6%)
    Language                                 : English
    Default                                  : No
    Forced                                   : No

    Text #1
    ID                                       : 12
    Format                                   : UTF-8
    Codec ID                                 : S_TEXT/UTF8
    Codec ID/Info                            : UTF-8 Plain Text
    Title                                    : Forced
    Language                                 : Russian
    Default                                  : Yes
    Forced                                   : No

    Text #2
    ID                                       : 13
    Format                                   : UTF-8
    Codec ID                                 : S_TEXT/UTF8
    Codec ID/Info                            : UTF-8 Plain Text
    Title                                    : Kinomania
    Language                                 : Russian
    Default                                  : No
    Forced                                   : No

    Text #3
    ID                                       : 14
    Format                                   : UTF-8
    Codec ID                                 : S_TEXT/UTF8
    Codec ID/Info                            : UTF-8 Plain Text
    Title                                    : Tycoon
    Language                                 : Russian
    Default                                  : No
    Forced                                   : No

    Text #4
    ID                                       : 15
    Format                                   : UTF-8
    Codec ID                                 : S_TEXT/UTF8
    Codec ID/Info                            : UTF-8 Plain Text
    Title                                    : SDH
    Language                                 : English
    Default                                  : No
    Forced                                   : No

    Menu
    00:00:00.000                             : en:Chapter 01
    00:04:55.626                             : en:Chapter 02
    00:21:58.232                             : en:Chapter 03
    00:27:49.583                             : en:Chapter 04
    00:33:46.732                             : en:Chapter 05
    00:38:57.168                             : en:Chapter 06
    00:58:23.122                             : en:Chapter 07
    01:06:11.300                             : en:Chapter 08
    01:26:24.636                             : en:Chapter 09
    01:31:49.753                             : en:Chapter 10
    02:00:29.512                             : en:Chapter 11
    02:14:10.375                             : en:Chapter 12
    02:28:31.567                             : en:Chapter 13
    02:39:55.793                             : en:Chapter 14
    02:46:56.463                             : en:Chapter 15
    02:50:12.118                             : en:Chapter 16
    02:58:20.147                             : en:Chapter 17

    x264 [info]: frame I:1850 Avg QP:15.93 size:109096
    x264 [info]: frame P:55404 Avg QP:18.37 size: 50630
    x264 [info]: frame B:199606 Avg QP:20.38 size: 24105
    pb.wtf



    Скачать Казино через торрент http://i65.fastpic.ru/big/2015/1127/2b/858dbf805298f1b665119cc305cead2b.png Скачать фильм Казино через торрент бесплантно в хорошем качестве Описание:Никто не может сравниться с Сэмом Ротстином. Никто не умеет зарабатывать деньги, как он. Никто не умеет работать так ... 9.9 10 10
    Info! Золотая раздача, скачанное не засчитывается.
    Торрент: Зарегистрирован [2015-11-27 17:48] · скачан: 434 раз
    Статус: √ проверено
    Размер: 13.11 GB
    Как cкачать? Как скачать Казино через торрент | qTorrent

    % Раздел Тема Автор DL S | L
    Ultra HD (UHD: 2K, 4K, 8K) — видео сверхвысокой чёткости [ 97.9 GB ] Казино / Casino [1995 UHD BDRemux 2160p] DVO [] +2xMVO+5xAVO bober100 Скачать
    2 | 0

    28-11-2019 20:33  

    Отключить всю рекламу на сайте

    28-11-2015 05:04 Казино Скачать торрент  

    ОЧЕНЬ ХОРОШИЙ ФИЛЬМ!!!pb.wtf



      Дорогой пользователь! Огромная просьба, поблагодарите релизера, оцените раздачу и оставьте свои комментарий, если Вы скачали Казино через торрент бесплатно! Внесите свою лепту в развитие PiratBit!
      Комментировать посты могут только пользователи прошедшие не сложную регистрацию
      Показать сообщения:    

      Казино через торрент
      Скачать бесплатно Казино
      Казино скачать торрент
      Казино смотреть онлайн
      Cкачать фильм Казино бесплатно
      Казино скачать торрент в хорошем качестве
      Казино смотреть онлайн бесплатно в хорошем качестве


      Вы не можете начинать темы
      Вы не можете отвечать на сообщения
      Вы не можете редактировать свои сообщения
      Вы не можете удалять свои сообщения
      Вы не можете голосовать в опросах
      Вы не можете прикреплять файлы к сообщениям
      Вы можете скачивать файлы