Ссылка на приватное зеркало всего за 1$. Внимание количество ограничено!!!

OK

1+1

iTunes

мы

OK

1

WEB-DLRip

Джокер

Пифагор

Ведьмак / The Witcher сериал

iTunes

ПШазам

ОК

Оно 2

iTunes

30
pack

Вам бонус

ВАЖНО

!!Акция!!

Alien_RageХит недели

RePack

Resident Evil 21

ИГРА 18+

pack

RePack

jed

RePack

fifa19

RePack

Assassins Creed: Odyssey

RePack

NEED FOR SPEED™ PAYBACK

4 сезон

9 сезон

Бесстыжие 9 сезон

Все сериалы

все сериалы на PB.wtf

RePack

FAR CRY 5
  

Человек-муравей / Ant-Man (Пейтон Рид) [2015 г., фантастика, боевик, комедия, приключения, HDRip, Дубляж "Лицензия"] pb.wtf

Человек-муравей через торрент pb.wtf

Раздают: 1 [ 0 KB/s ]
Размер: 2.17 GB | Добавлен: 4 года 2 мес. назад | Торрент скачан:213 раз
Скачать  

27-11-2015 18:22 Человек-муравей Скачать торрент  

Человек-муравей / Ant-Man
Год выпуска: 2015
Страна: США / Marvel Studios
Жанр: фантастика, боевик, комедия, приключения
Продолжительность: 01:57:06
Перевод: Дубляж (Лицензия)

Режиссер: Пейтон Рид

IMDB 7.60 (150 314)


В ролях: Пол Радд, Майкл Дуглас, Эванджелин Лилли, Кори Столл, Майкл Пенья, Бобби Каннавале, Ти-Ай, Давид Дастмалчян, Эбби Райдер Фортсон, Джуди Грир

Описание: Вооружившись удивительной способностью уменьшаться в размере, но обладать при этом большой силой, мошенник Скотт Лэнг должен стать героем и помочь своему наставнику, доктору Хэнку Пиму, сохранить в тайне существование костюма Человека-муравья от угроз нового поколения.

Качество: HDRip
Формат: AVI
Видео кодек: XviD
Аудио кодек: AC3
Видео: 720x384 (1.88:1), 23.976 fps, XviD build 50 ~2203 kbps avg, 0.33 bit/pixel
Аудио: 48 kHz, AC3 Dolby Digital, 3/2 (L,C,R,l,r) + LFE ch, ~448 kbps

Общее
Полное имя : F:\кино\Человек-муравей.2015.HDRip.avi
Формат : AVI
Формат/Информация : Audio Video Interleave
Профиль формата : OpenDML
Размер файла : 2,17 Гбайт
Продолжительность : 1 ч. 57 м.
Общий поток : 2659 Кбит/сек
Программа кодирования : VirtualDubMod 1.5.10.3 | www.virtualdub-fr.org || (build 2550/release)
Библиотека кодирования : VirtualDubMod build 2550/release

Видео
Идентификатор : 0
Формат : MPEG-4 Visual
Профиль формата : Advanced Simple@L5
Параметр BVOP формата : 2
Параметр QPel формата : Нет
Параметр GMC формата : Без точки перехода
Параметр матрицы формата : Default (H.263)
Идентификатор кодека : XVID
Идентификатор кодека/Подсказка : XviD
Продолжительность : 1 ч. 57 м.
Битрейт : 2199 Кбит/сек
Ширина : 720 пикселей
Высота : 384 пикселя
Соотношение сторон : 1,85:1
Частота кадров : 23,976 кадра/сек
Цветовое пространство : YUV
Субдискретизация насыщенности : 4:2:0
Битовая глубина : 8 бит
Тип развёртки : Прогрессивная
Метод сжатия : С потерями
Бит/(Пиксели*Кадры) : 0.332
Размер потока : 1,80 Гбайт (83%)
Библиотека кодирования : XviD 1.2.1 (UTC 2008-12-04)

Аудио
Идентификатор : 1
Формат : AC-3
Формат/Информация : Audio Coding 3
Расширение режима : CM (complete main)
Параметр Endianness формата : Big
Идентификатор кодека : 2000
Продолжительность : 1 ч. 57 м.
Вид битрейта : Постоянный
Битрейт : 448 Кбит/сек
Каналы : 6 каналов
Расположение каналов : Front: L C R, Side: L R, LFE
Частота : 48,0 КГц
Метод сжатия : С потерями
Размер потока : 375 Мбайт (17%)
Выравнивание : Разделение по промежуткам
Продолжительность промежутка : 42 мс. (1,00 видеокадр)
Время предзагрузки промежутка : 500 мс.

pb.wtf



Скачать Человек-муравей через торрент http://pic.kartinco.top/images/11/4t67b.jpg Скачать фильм Человек-муравей через торрент бесплантно в хорошем качестве Описание: Вооружившись удивительной способностью уменьшаться в размере, но обладать при этом большой силой, мошенник Скотт Лэнг должен ... 9.5 10 13
Торрент: Зарегистрирован [2015-11-27 18:22] · скачан: 213 раз
Статус: √ проверено
Размер: 2.17 GB
Как cкачать? Как скачать Человек-муравей через торрент | qTorrent

% Раздел Тема Автор DL S | L
Фильмы 2018 [DVDrip, WEB-DLRip, HDrip] (DUB, MVO) [ 2.76 GB ] Человек-муравей и Оса / Ant-Man and the Wasp [2018 WEBRip-AVC Dub AVO][Open Matte] от ExKinoRay morfyi Скачать
4 | 1
Ultra HD (UHD: 2K, 4K, 8K) — видео сверхвысокой чёткости [ 30.89 GB ] Человек-муравей / Ant-Man [2015 UHD BDRip 2160p] DUB [] +AVO [Гаврилов] bober100 Скачать
1 | 0
Ultra HD (UHD: 2K, 4K, 8K) — видео сверхвысокой чёткости [ 51.3 GB ] Человек-муравей / Ant-Man [2015 UHD BDRemux 2160p] DUB [] +AVO [Гаврилов] bober100 Скачать
1 | 0
Ultra HD (UHD: 2K, 4K, 8K) — видео сверхвысокой чёткости [ 45.21 GB ] Человек-муравей и Оса / Ant-Man and the Wasp [2018 UHD BDRemux 2160p] DUB [] + AVO [М. Чадов] sheker187 Скачать
2 | 0
Ultra HD (UHD: 2K, 4K, 8K) — видео сверхвысокой чёткости [ 49.92 GB ] Человек-муравей и Оса / Ant-Man and the Wasp [2018 UHD Blu-ray 2160p] DUB [] sheker187 Скачать
1 | 0
Фильмы 2018 [DVDrip, WEB-DLRip, HDrip] (DUB, MVO) [ 1.45 GB ] Человек-муравей и Оса / Ant-Man and the Wasp [2018 BDRip-AVC] - [] - ExKinoRay Enigma2010 Скачать
9 | 1
Ultra HD (UHD: 2K, 4K, 8K) — видео сверхвысокой чёткости [ 22.96 GB ] Человек-муравей и Оса / Ant-Man and the Wasp [2018 UHD BDRip 2160p] [SDR] AVO+DUB [] bober100 Скачать
2 | 0

28-11-2019 20:33  

Отключить всю рекламу на сайте

    Дорогой пользователь! Огромная просьба, поблагодарите релизера, оцените раздачу и оставьте свои комментарий, если Вы скачали Человек-муравей через торрент бесплатно! Внесите свою лепту в развитие PiratBit!
    Комментировать посты могут только пользователи прошедшие не сложную регистрацию
    Показать сообщения:    

    Человек-муравей через торрент
    Скачать бесплатно Человек-муравей
    Человек-муравей скачать торрент
    Человек-муравей смотреть онлайн
    Cкачать фильм Человек-муравей бесплатно
    Человек-муравей скачать торрент в хорошем качестве
    Человек-муравей смотреть онлайн бесплатно в хорошем качестве


    Вы не можете начинать темы
    Вы не можете отвечать на сообщения
    Вы не можете редактировать свои сообщения
    Вы не можете удалять свои сообщения
    Вы не можете голосовать в опросах
    Вы не можете прикреплять файлы к сообщениям
    Вы можете скачивать файлы