Ссылка на приватное зеркало всего за 1$. Внимание количество ограничено!!!

OK

1+1

iTunes

мы

OK

1

WEB-DLRip

Джокер

Пифагор

Ведьмак / The Witcher сериал

iTunes

ПШазам

ОК

Оно 2

iTunes

30
pack

Вам бонус

ВАЖНО

!!Акция!!

Alien_RageХит недели

RePack

Resident Evil 21

ИГРА 18+

pack

RePack

jed

RePack

fifa19

RePack

Assassins Creed: Odyssey

RePack

NEED FOR SPEED™ PAYBACK

4 сезон

9 сезон

Бесстыжие 9 сезон

Все сериалы

все сериалы на PB.wtf

RePack

FAR CRY 5
  

Человек-муравей / Ant-Man (Пейтон Рид / Peyton Reed) [2015, фантастика, боевик, комедия, BDRip-AVC от potroks] DUB Лицензия pb.wtf

Человек-муравей через торрент pb.wtf

Размер: 1.65 GB | Добавлен: 4 года 1 мес. назад | Торрент скачан:862 раза
Скачать  

28-11-2015 04:45 Человек-муравей Скачать торрент  

Человек-муравей / Ant-Man
«Рожденный ползать взлетит до небес»
Год выпуска: 2015
Страна: США / Marvel Studios Inc.
Жанр: фантастика, боевик, комедия, приключения
Продолжительность: 01:57:06
Перевод: Дубляж [BD CEE]
Субтитры: русские (полные + форс.)
Навигация по главам: есть
Режиссер: Пейтон Рид / Peyton Reed
В ролях:

Пол Радд (Scott Lang / Ant-Man), Майкл Дуглас (Dr. Hank Pym), Эванджелин Лилли (Hope van Dyne), Кори Столл (Darren Cross / Yellowjacket), Майкл Пенья (Luis), Бобби Каннавале (Paxton), Ти-Ай (Dave), Давид Дастмалчян (Kurt), Эбби Райдер Фортсон (Cassie Lang), Джуди Грир (Maggie Lang), Энтони Маки (Sam Wilson / Falcon), Вуд Харрис (Gale)
Описание: Вооружившись удивительной способностью уменьшаться в размере, но обладать при этом большой силой, мошенник Скотт Лэнг должен стать героем и помочь своему наставнику, доктору Хэнку Пиму, сохранить в тайне существование костюма Человека-муравья от угроз нового поколения.

Качество: BDRip-AVC
Формат: MKV
Видео кодек: AVC
Аудио кодек: AC3
Видео: 960x518 (1.853), 1569 kbps, 23,976 fps, 0,132 bit/pixel
Аудио: AC3 / 5.1 / 48 kHz / 448 kbps / 16 bit

Релиз группы:
Автор рипа: potroks

Код:

General
Unique ID                                : 182307762103381758636443958949795869166 (0x892732A3DDF6F7D9B2F1B44F88A031EE)
Complete name                            : Chelovek.Muravey.2015.RUS.BDRip.x264.-HELLYWOOD.mkv
Format                                   : Matroska
Format version                           : Version 4 / Version 2
File size                                : 1.65 GiB
Duration                                 : 1h 57mn
Overall bit rate                         : 2 019 Kbps
Movie name                               : Ant-Man (2015) - HELLYWOOD
Encoded date                             : UTC 2010-02-22 21:41:31
Writing application                      : mkvmerge v5.8.0 ('No Sleep / Pillow') built on Sep 30 2012 10:57:14
Writing library                          : libebml v1.3.0 + libmatroska v1.4.0

Video
ID                                       : 1
Format                                   : AVC
Format/Info                              : Advanced Video Codec
Format profile                           : High@L4.1
Format settings, CABAC                   : Yes
Format settings, ReFrames                : 11 frames
Codec ID                                 : V_MPEG4/ISO/AVC
Duration                                 : 1h 57mn
Bit rate                                 : 1 569 Kbps
Width                                    : 960 pixels
Height                                   : 518 pixels
Display aspect ratio                     : 1.853
Frame rate mode                          : Variable
Frame rate                               : 23.976 fps
Color space                              : YUV
Chroma subsampling                       : 4:2:0
Bit depth                                : 8 bits
Scan type                                : Progressive
Bits/(Pixel*Frame)                       : 0.132
Stream size                              : 1.25 GiB (76%)
Title                                    : potroks
Writing library                          : x264 core 128 r2216M 198a7ea
Encoding settings                        : cabac=1 / ref=12 / deblock=1:-2:-2 / analyse=0x3:0x133 / me=esa / subme=11 / psy=1 / psy_rd=1.05:0.10 / mixed_ref=1 / me_range=48 / chroma_me=1 / trellis=2 / 8x8dct=1 / cqm=0 / deadzone=21,11 / fast_pskip=0 / chroma_qp_offset=-3 / threads=10 / lookahead_threads=1 / sliced_threads=0 / nr=0 / decimate=1 / interlaced=0 / bluray_compat=0 / constrained_intra=0 / bframes=13 / b_pyramid=1 / b_adapt=2 / b_bias=0 / direct=3 / weightb=1 / open_gop=0 / weightp=2 / keyint=250 / keyint_min=23 / scenecut=40 / intra_refresh=0 / rc_lookahead=40 / rc=2pass / mbtree=0 / bitrate=1569 / ratetol=1.0 / qcomp=0.70 / qpmin=0 / qpmax=69 / qpstep=4 / cplxblur=20.0 / qblur=0.5 / vbv_maxrate=62500 / vbv_bufsize=62500 / nal_hrd=none / ip_ratio=1.40 / pb_ratio=1.30 / aq=1:0.80
Language                                 : English
Default                                  : Yes
Forced                                   : No

Audio
ID                                       : 2
Format                                   : AC-3
Format/Info                              : Audio Coding 3
Mode extension                           : CM (complete main)
Codec ID                                 : A_AC3
Duration                                 : 1h 57mn
Bit rate mode                            : Constant
Bit rate                                 : 448 Kbps
Channel(s)                               : 6 channels
Channel positions                        : Front: L C R, Side: L R, LFE
Sampling rate                            : 48.0 KHz
Bit depth                                : 16 bits
Compression mode                         : Lossy
Stream size                              : 375 MiB (22%)
Title                                    : Dub | DD 5.1 @ 448 kbps - Blu-Ray CEE
Language                                 : Russian
Default                                  : Yes
Forced                                   : No

Text #1
ID                                       : 3
Format                                   : UTF-8
Codec ID                                 : S_TEXT/UTF8
Codec ID/Info                            : UTF-8 Plain Text
Title                                    : Forced
Language                                 : Russian
Default                                  : Yes
Forced                                   : No

Text #2
ID                                       : 4
Format                                   : UTF-8
Codec ID                                 : S_TEXT/UTF8
Codec ID/Info                            : UTF-8 Plain Text
Title                                    : Blu-Ray
Language                                 : Russian
Default                                  : No
Forced                                   : No

Menu
00:00:00.000                             : en:(01)00:00:00:000
00:02:08.837                             : en:(02)00:02:08:837
00:08:40.186                             : en:(03)00:08:40:186
00:15:24.840                             : en:(04)00:15:24:840
00:19:59.740                             : en:(05)00:19:59:740
00:27:50.210                             : en:(06)00:27:50:210
00:33:07.235                             : en:(07)00:33:07:235
00:38:53.956                             : en:(08)00:38:53:956
00:44:36.465                             : en:(09)00:44:36:465
00:49:22.459                             : en:(10)00:49:22:459
00:57:44.252                             : en:(11)00:57:44:252
01:00:48.811                             : en:(12)01:00:48:811
01:06:31.529                             : en:(13)01:06:31:529
01:23:21.287                             : en:(14)01:23:21:287
01:34:20.529                             : en:(15)01:34:20:529
01:47:34.239                             : en:(16)01:47:34:239

pb.wtf



Скачать Человек-муравей через торрент http://i74.fastpic.ru/big/2015/1128/3e/56e22bc3f511e6fd68980c348219ed3e.png Скачать фильм Человек-муравей через торрент бесплантно в хорошем качестве Описание: Вооружившись удивительной способностью уменьшаться в размере, но обладать при этом большой силой, мошенник Скотт Лэнг должен ... 9.1 10 14
Info! Золотая раздача, скачанное не засчитывается.
Торрент: Зарегистрирован [2015-11-28 04:45] · скачан: 862 раз
Статус: √ проверено
Размер: 1.65 GB
Как cкачать? Как скачать Человек-муравей через торрент | qTorrent

% Раздел Тема Автор DL S | L
Ultra HD (UHD: 2K, 4K, 8K) — видео сверхвысокой чёткости [ 30.89 GB ] Человек-муравей / Ant-Man [2015 UHD BDRip 2160p] DUB [] +AVO [Гаврилов] bober100 Скачать
1 | 0
Ultra HD (UHD: 2K, 4K, 8K) — видео сверхвысокой чёткости [ 51.3 GB ] Человек-муравей / Ant-Man [2015 UHD BDRemux 2160p] DUB [] +AVO [Гаврилов] bober100 Скачать
1 | 0
Ultra HD (UHD: 2K, 4K, 8K) — видео сверхвысокой чёткости [ 45.21 GB ] Человек-муравей и Оса / Ant-Man and the Wasp [2018 UHD BDRemux 2160p] DUB [] + AVO [М. Чадов] sheker187 Скачать
2 | 0
Ultra HD (UHD: 2K, 4K, 8K) — видео сверхвысокой чёткости [ 49.92 GB ] Человек-муравей и Оса / Ant-Man and the Wasp [2018 UHD Blu-ray 2160p] DUB [] sheker187 Скачать
1 | 0
Ultra HD (UHD: 2K, 4K, 8K) — видео сверхвысокой чёткости [ 22.96 GB ] Человек-муравей и Оса / Ant-Man and the Wasp [2018 UHD BDRip 2160p] [SDR] AVO+DUB [] bober100 Скачать
2 | 0
Фильмы (HD 720p, 1080p) (48-60 fps) [ 6.89 GB ] Человек-муравей и Оса / Ant-Man and the Wasp [2018 BDRip 720p 60 fps от еnvy / NNNB] DUB | еnvy Скачать
30 | 5
Ultra HD (UHD: 2K, 4K, 8K) — видео сверхвысокой чёткости [ 12.32 GB ] Человек-муравей и Оса / Ant-Man and the Wasp [2018 UHD BDRip 2160p] [SDR] DUB [] sheker187 Скачать
1 | 0

28-11-2019 20:33  

Отключить всю рекламу на сайте

    Дорогой пользователь! Огромная просьба, поблагодарите релизера, оцените раздачу и оставьте свои комментарий, если Вы скачали Человек-муравей через торрент бесплатно! Внесите свою лепту в развитие PiratBit!
    Комментировать посты могут только пользователи прошедшие не сложную регистрацию
    Показать сообщения:    

    Человек-муравей через торрент
    Скачать бесплатно Человек-муравей
    Человек-муравей скачать торрент
    Человек-муравей смотреть онлайн
    Cкачать фильм Человек-муравей бесплатно
    Человек-муравей скачать торрент в хорошем качестве
    Человек-муравей смотреть онлайн бесплатно в хорошем качестве


    Вы не можете начинать темы
    Вы не можете отвечать на сообщения
    Вы не можете редактировать свои сообщения
    Вы не можете удалять свои сообщения
    Вы не можете голосовать в опросах
    Вы не можете прикреплять файлы к сообщениям
    Вы можете скачивать файлы