1 сезон

1 сезон

iTunes

1

КиноПоиск HD

Кинопоиск HD

iTunes

13

1 сезон

RePack

30

Новинка

ВАЖНО

ИГРА 18+

pack

RePack

MK11
pack

Легкие деньги

RePack

jed

RePack

fifa19

RePack

RDR2

RePack

NEED FOR SPEED™ PAYBACK

4 сезон

9 сезон

Бесстыжие 9 сезон

Все сериалы

все сериалы на PB.wtf

RePack

FAR CRY 5
  
Magnet ссылка

Винчи, или Ва-банк 3 / Vinci (Юлиуш Махульский) [2004 г., комедия, криминал, DVDRemux] MVO pb.wtf

Винчи, или Ва-банк 3 через торрент pb.wtf

Размер: 5 GB | Добавлен: 5 лет 4 мес. назад | Торрент скачан:24 раза
Скачать  

28-11-2015 08:18 Винчи, или Ва-банк 3 Скачать торрент  

Винчи, или Ва-банк 3VinciГод выпуска: 2004
Страна: Польша
Жанр: Комедия, криминал

Режиссёр: Юлиуш Махульский
В ролях: Роберт Венцкевич, Юзеф Палечка, Борис Шиц, Ежи Гралек, Мариола Паячковская, Марчин Дорочиньский, Лукаш Симлат, Карина Северин, Мечислав Громбка, Халина Лабонарска

Продолжительность: 01:47:44
Перевод: Профессиональный многоголосый
Субтитры: Нет

Описание: После тюремной отсидки известный вор Цума выходит на свободу. Ему предоставляется уникальная возможность — организовать похищение знаменитой картины Леонардо да Винчи «Дама с горностаем».
Он пытается заручиться поддержкой своего бывшего подельника Джулиана, но с ужасом обнаруживает, что тот распрощался с миром преступности и стал полицейским!



Автор ремукса: Egorijj.Alien

Качество: DVDRemux
Формат: MKV
Видео кодек: MPEG2
Аудио кодек: AC3
Видео: 5677 kbps, 720x576 (16:9), 25 fps
Аудио 1: Русский, AC3, 384 kbps, 6 ch, 48,0 khz
Аудио 2: Польский, AC3, 448 kbps, 6 ch, 48,0 khz
Общее
Уникальный идентификатор : 187322792306213031454252630693137933044 (0x8CED0EB81D84E002A2ED1E55F990E2F4)
Полное имя : D:\Видео\Двд-ремикс\Vinci.mkv
Формат : Matroska
Версия формата : Version 4 / Version 2
Размер файла : 5,00 Гбайт
Продолжительность : 1 ч. 47 м.
Режим общего битрейта : Переменный
Общий поток : 6641 Кбит/сек
Дата кодирования : UTC 2015-11-26 18:11:19
Программа кодирования : mkvmerge v7.0.0 ('Where We Going') 64bit built on Jun 9 2014 15:16:27
Библиотека кодирования : libebml v1.3.0 + libmatroska v1.4.1
DURATION : 01:47:44.448000000
NUMBER_OF_FRAMES : 202014
NUMBER_OF_BYTES : 362009088
_STATISTICS_WRITING_APP : mkvmerge v7.0.0 ('Where We Going') 64bit built on Jun 9 2014 15:16:27
_STATISTICS_WRITING_DATE_UTC : 2015-11-26 18:11:19
_STATISTICS_TAGS : BPS DURATION NUMBER_OF_FRAMES NUMBER_OF_BYTES

Видео
Идентификатор : 1
Формат : MPEG Video
Версия формата : Version 2
Профиль формата : Main@Main
Параметр BVOP формата : Да
Параметр матрицы формата : По умолчанию
Параметр GOP формата : M=3, N=13
Format_Settings_PictureStructure : Frame
Идентификатор кодека : V_MPEG2
Идентификатор кодека/Информация : MPEG 1 or 2 Video
Продолжительность : 1 ч. 47 м.
Вид битрейта : Переменный
Битрейт : 5677 Кбит/сек
Максимальный битрейт : 9200 Кбит/сек
Ширина : 720 пикселей
Высота : 576 пикселей
Соотношение сторон : 16:9
Соотношение сторон в оригинале : 2,40:1
Режим частоты кадров : Постоянный
Частота кадров : 25,000 кадров/сек
Стандарт вещания : PAL
Цветовое пространство : YUV
Субдискретизация насыщенности : 4:2:0
Битовая глубина : 8 бит
Тип развёртки : Чересстрочная
Порядок развёртки : Верхнее поле первое
Метод сжатия : С потерями
Бит/(Пиксели*Кадры) : 0.548
Временной код первого кадра : 10:00:00:00
Оригинал временного кода : Group of pictures header
Размер потока : 4,27 Гбайт (85%)
Default : Да
Forced : Нет
Основные цвета : BT.601 PAL
Характеристики трансфера : BT.470 System B, BT.470 System G
Коэффициенты матрицы : BT.601

Аудио #1
Идентификатор : 2
Формат : AC-3
Формат/Информация : Audio Coding 3
Расширение режима : CM (complete main)
Параметр Endianness формата : Big
Идентификатор кодека : A_AC3
Продолжительность : 1 ч. 47 м.
Вид битрейта : Постоянный
Битрейт : 384 Кбит/сек
Каналы : 6 каналов
Расположение каналов : Front: L C R, Side: L R, LFE
Частота : 48,0 КГц
Битовая глубина : 16 бит
Метод сжатия : С потерями
Размер потока : 296 Мбайт (6%)
Default : Да
Forced : Нет

Аудио #2
Идентификатор : 3
Формат : AC-3
Формат/Информация : Audio Coding 3
Расширение режима : CM (complete main)
Параметр Endianness формата : Big
Идентификатор кодека : A_AC3
Продолжительность : 1 ч. 47 м.
Вид битрейта : Постоянный
Битрейт : 448 Кбит/сек
Каналы : 6 каналов
Расположение каналов : Front: L C R, Side: L R, LFE
Частота : 48,0 КГц
Битовая глубина : 16 бит
Метод сжатия : С потерями
Размер потока : 345 Мбайт (7%)
Default : Нет
Forced : Нет
pb.wtf



Скачать Винчи, или Ва-банк 3 через торрент http://i73.fastpic.ru/big/2015/1128/7b/71516ea5eb025ee61c430352fc72ba7b.png Скачать фильм Винчи, или Ва-банк 3 через торрент бесплантно в хорошем качестве Описание: После тюремной отсидки известный вор Цума выходит на свободу. Ему предоставляется уникальная возможность — организовать похищение ... 10 10 1
Info! Золотая раздача, скачанное не засчитывается.
Торрент: Зарегистрирован [2015-11-28 08:18] · скачан: 24 раз
Статус: √ проверено
Размер: 5 GB
Как cкачать? Как скачать Винчи, или Ва-банк 3 через торрент | UTorrent

% Раздел Тема Автор DL S | L
Фильмы 2001-2005 [ 1.76 GB ] Винчи или Ва-банк 3 / Vinci [2004 DVDRip MVO+ Оригинал] lev1244v Скачать
1 | 0

28-11-2019 20:33  

Отключить всю рекламу на сайте

28-11-2015 10:10 Винчи, или Ва-банк 3 Скачать торрент  

Предыдущие части были класссс надеюсь и эта не подкочаетpb.wtf



28-11-2015 10:57 Винчи, или Ва-банк 3 Скачать торрент  

мумухаг писал(а):

Предыдущие части были класссс надеюсь и эта не подкочает

прокатились на названии !pb.wtf



28-11-2015 12:26 Винчи, или Ва-банк 3 Скачать торрент  

Да, русский перевод названия добавил "Ва-банк 3", но фильм нормальныйpb.wtf



    Дорогой пользователь! Огромная просьба, поблагодарите релизера, оцените раздачу и оставьте свои комментарий, если Вы скачали Винчи, или Ва-банк 3 через торрент бесплатно! Внесите свою лепту в развитие PiratBit!
    Комментировать посты могут только пользователи прошедшие не сложную регистрацию
    Показать сообщения:    

    Винчи, или Ва-банк 3 через торрент
    Скачать бесплатно Винчи, или Ва-банк 3
    Винчи, или Ва-банк 3 скачать торрент
    Винчи, или Ва-банк 3 смотреть онлайн
    Cкачать фильм Винчи, или Ва-банк 3 бесплатно
    Винчи, или Ва-банк 3 скачать торрент в хорошем качестве
    Винчи, или Ва-банк 3 смотреть онлайн бесплатно в хорошем качестве


    Вы не можете начинать темы
    Вы не можете отвечать на сообщения
    Вы не можете редактировать свои сообщения
    Вы не можете удалять свои сообщения
    Вы не можете голосовать в опросах
    Вы не можете прикреплять файлы к сообщениям
    Вы можете скачивать файлы