Ссылка на приватное зеркало всего за 1$. Внимание количество ограничено!!!

iTunes

iTunes

iTunes

1

iTunes

iTunes

iTunes

iTunes

iTunes

30
pack

$ от Little Big

ВАЖНО

!!Акция!!

Alien_RageХит недели

RePack

Resident Evil 21

ИГРА 18+

pack

RePack

jed

!!Акция!!

Alien_Rage

RePack

fifa19

RePack

Assassins Creed: Odyssey

RePack

NEED FOR SPEED™ PAYBACK

4 сезон

9 сезон

Бесстыжие 9 сезон

Все сериалы

все сериалы на PB.wtf

RePack

FAR CRY 5
  

Новые русские (Камила Сафина, Григорий Добрыгин, Оксана Михеева) [2015, комедия, триллер, фантастика, WEB-DLRip, [Русский] pb.wtf

Новые русские через торрент pb.wtf

Размер: 1.37 GB | Добавлен: 4 года 6 мес. назад | Торрент скачан:941 раз
Скачать  

28-11-2015 10:17 Новые русские Скачать торрент  


Новые русские


ИНФОРМАЦИЯ:
Год выпуска:2015
Страна: Россия
Жанр: комедия, триллер, фантастика, драма
Продолжительность: 01:29:10
Перевод: Не требуется [Русский]
Режиссер: Камила Сафина, Григорий Добрыгин, Оксана Михеева

В Ролях:


Виктор Сухоруков (Михаил, короткометражка «Чиппендейл»), Фандус Гаптуллин (Шамиль, короткометражка «Чиппендейл»), Владимир Любовский (Рамзиль, короткометражка «Чиппендейл»), Максим Бартош (Ильдар, короткометражка «Чиппендейл»), Елена Сердюкова (Лена, короткометражка «Чиппендейл»), Сергей Маковецкий (короткометражка «Верпаскунген»), Джордже Пистерьяну (короткометражка «Верпаскунген»), Бернардо Арриас Поррас (короткометражка «Верпаскунген»), Александр Яценко (Паша, короткометражка «Расфокусин»), Екатерина Щеглова (Лиза, короткометражка «Расфокусин»), Мария Атлас-Попова (соседка, короткометражка «Расфокусин»), Павел Ковач (милиционер, короткометражка «Расфокусин»)

Описание:
Коллекция короткометражных фильмов. Все шесть работ сделаны молодыми российскими режиссерами, все отличает та свобода, которую редко встретишь в большом отечественном кино. Молодежь не зависит от финансового диктата, ей плевать на цензурные запреты, она смела в обращении с жанрами и не стесняется нарушать любые правила.


ТЕХ.ДАННЫЕ:
Качество: WEB-DLRip
Формат: AVI
Видео: XviD, 720x400 (16:9), 1905 kbps, 24 fps, 0,276 bpp
Аудио: AC3 / 2.0 / 48 kHz / 192 kbps / 16 bit


General
Complete name : D:\Торенты\H0Bye.PyCCk1e.2015.O.WEB-DLRip.avi
Format : AVI
Format/Info : Audio Video Interleave
File size : 1.37 GiB
Duration : 1h 29mn
Overall bit rate : 2 193 Kbps
Writing application : VirtualDubMod 1.5.10.3 | www.virtualdub-fr.org || (build 2550/release)
Writing library : VirtualDubMod build 2550/release

Video
ID : 0
Format : MPEG-4 Visual
Format profile : Advanced Simple@L5
Format settings, BVOP : 2
Format settings, QPel : No
Format settings, GMC : No warppoints
Format settings, Matrix : Default (MPEG)
Codec ID : XVID
Codec ID/Hint : XviD
Duration : 1h 29mn
Bit rate : 1 905 Kbps
Width : 720 pixels
Height : 400 pixels
Display aspect ratio : 16:9
Frame rate : 24.000 fps
Color space : YUV
Chroma subsampling : 4:2:0
Bit depth : 8 bits
Scan type : Progressive
Compression mode : Lossy
Bits/(Pixel*Frame) : 0.276
Stream size : 1.19 GiB (87%)
Writing library : XviD 1.2.1 (UTC 2008-12-04)

Audio
ID : 1
Format : AC-3
Format/Info : Audio Coding 3
Mode extension : CM (complete main)
Codec ID : 2000
Duration : 1h 29mn
Bit rate mode : Constant
Bit rate : 192 Kbps
Channel(s) : 2 channels
Channel positions : Front: L R
Sampling rate : 48.0 KHz
Bit depth : 16 bits
Compression mode : Lossy
Stream size : 122 MiB (9%)
Alignment : Split accross interleaves
Скриншоты:

© Оформление by .::Ворон::.
pb.wtf



Скачать Новые русские через торрент http://pic.kartinco.top/images/6/ordi9.jpg Скачать фильм Новые русские через торрент бесплантно в хорошем качестве Описание: Коллекция короткометражных фильмов. Все шесть работ сделаны молодыми российскими режиссерами, все отличает та свобода, которую ... 7.8 10 27
Торрент: Зарегистрирован [2015-11-28 10:17] · скачан: 941 раз
Статус: T временная
Размер: 1.37 GB
Как cкачать? Как скачать Новые русские через торрент | qTorrent

% Раздел Тема Автор DL S | L
Сборники отечественного шансона [ 690 MB ] VA - Праздник души. Новинки русского шансона 2017 / MP3 / 256 kbps / Шансон bober100 Скачать
1 | 0
Отечественная Поп музыка (сборники) (mp3) [ 672 MB ] VA - Новое поколение. Русский сборник поп музыки 2017 / MP3 / 256 kbps / Pop bober100 Скачать
1 | 0
Comedy Club - Комеди Клаб new [ 1.3 GB ] Новый Comedy Club [26.05] [2017 Юмористическое шоу WEB-DL 720p Русский] bober100 Скачать
1 | 0
Отечественная Поп музыка (сборники) (mp3) [ 640 MB ] VA - Новая Русская Дискотека - 7 от Виталия 72 2017 / MP3 / Поп bober100 Скачать
1 | 0
Отечественная Поп музыка (сборники) (mp3) [ 677 MB ] VA- Популярные весенние русские новинки 3 2017 / MP3 / 256 kbps / Pop Бумер Скачать
1 | 0
Отечественная Поп музыка (сборники) (mp3) [ 1.42 GB ] VA - Старые песни по-новому. Русский выпуск 2017 / MP3 / 320 kbps / Поп bober100 Скачать
2 | 0
R.G.Resident - Документалистика, Видео [ 1.07 GB ] Новые русские сенсации - Человек Путина [2017 Документальный ТВ-шоу расследование HDTVRip Русский] R.G.Resident ruslanishe Скачать
1 | 0

28-11-2019 20:33  

Отключить всю рекламу на сайте

28-11-2015 15:57 Новые русские Скачать торрент  

И как?)pb.wtf



28-11-2015 17:20 Новые русские Скачать торрент  

Хлам((((pb.wtf



29-11-2015 21:06 Новые русские Скачать торрент  

хотелось бы, чтоб лица моложе 30 лет не оставляли комменты об Российских фильмахpb.wtf



    Дорогой пользователь! Огромная просьба, поблагодарите релизера, оцените раздачу и оставьте свои комментарий, если Вы скачали Новые русские через торрент бесплатно! Внесите свою лепту в развитие PiratBit!
    Комментировать посты могут только пользователи прошедшие не сложную регистрацию
    Показать сообщения:    

    Новые русские через торрент
    Скачать бесплатно Новые русские
    Новые русские скачать торрент
    Новые русские смотреть онлайн
    Cкачать фильм Новые русские бесплатно
    Новые русские скачать торрент в хорошем качестве
    Новые русские смотреть онлайн бесплатно в хорошем качестве


    Вы не можете начинать темы
    Вы не можете отвечать на сообщения
    Вы не можете редактировать свои сообщения
    Вы не можете удалять свои сообщения
    Вы не можете голосовать в опросах
    Вы не можете прикреплять файлы к сообщениям
    Вы можете скачивать файлы