Ссылка на приватное зеркало нашего сайта всего за 1$. Внимание количество ограничено!!!

2 сезон

iTunes

1 сезон

1

2 сезон

2 сезон

iTunes

1 сезон

RePack

30

Ultimate

ВАЖНО

ИГРА 18+

pack

RePack

MK11
pack

Забери бонус

RePack

jed

!!Акция!!

Alien_Rage

RePack

fifa19

RePack

Assassins Creed: Odyssey

RePack

NEED FOR SPEED™ PAYBACK

4 сезон

9 сезон

Бесстыжие 9 сезон

Все сериалы

все сериалы на PB.wtf

RePack

FAR CRY 5
  

Легенды / Legends / Сезон: 2 / Серии 1-10 из 10 (Брэд Тернер / Brad Turner, Джэми Пэйн / Jamie Payne, Олрик Райли / Alrick Riley) [2015, США, боевик, триллер, драма, WEB-DLRip-AVC] MVO [NewStudio] pb.wtf

Легенды через торрент pb.wtf

Размер: 8.46 GB | Добавлен: 4 года 10 мес. назад | Торрент скачан:75 раз
Скачать  

29-11-2015 03:03 Легенды Скачать торрент  

Легенды / Legends


  • Год выпуска: 2015
  • Страна: США
  • Жанр: боевик, триллер, драма, криминал
  • Продолжительность: 00:41:42 (Серия)
  • Перевод: Профессиональный многоголосый закадровый
  • Режиссер: Брэд Тернер / Brad Turner, Джэми Пэйн / Jamie Payne, Олрик Райли / Alrick Riley
  • В ролях:

    Шон Бин (Martin Odum), Моррис Честнат (Tony Rice), Эли Лартер (Crystal McGuire), Тина Мажорино (Maggie Harris), Эмбер Валлетта (Sonya Odum), Мэйсон Кук (Aiden Odum), Стив Харрис (Nelson Gates), Клара Иссова (Ilyana), Келли Овертон (Nina Brenner), Висар Вишка (Doku Zakayev), Маршалл Белл (Deputy Director Nicholas Spiller), Дэн Кейд (Steve)


  • Работая на ФБР, Мартин специализировался на работе под глубоким прикрытием, буквально полностью перевоплощался в другую личность, теперь же он простой частный детектив. Жизнь главного героя круто меняется, когда Мартин узнает, что, возможно, он не тот, кем себя считает. И теперь ему предстоит докопаться до истины: он страдает заурядным раздвоением личности или является частью тайного плана ЦРУ?
  • Рейтинг:



  • Качество: WEB-DLRip-AVC
  • Формат: :MPEG-4
  • Видео кодек: AVC
  • Аудио кодек: AC3
  • Видео: 1024x576 (16:9), 2034 kbps, 23,976 fps, 0,144 bpp
  • Аудио №1: русский / 5.1 / 48 kHz / 384 kbps / 16 bit |[NewStudio]|
  • Аудио №2: английский / 5.1 / 48 kHz / 384 kbps / 16 bit
  • Релиз от: GEKADOL

    Код:

    Внимание! Раздача ведётся путём добавления новых серий; при каждом добавлении создаётся новый торрент. Чтобы начать докачку новой серии, пользователям необходимо сделать следующее:
    (1) остановить скачивание,
    (2) удалить старый торрент у себя из клиента (старые серии удалять не надо),
    (3) скачать новый торрент и запустить его у себя в клиенте вместо старого, при этом указать клиенту путь в старую папку куда и должно происходить скачивание новых серий.
    Ваш клиент при этом должен произвести хеширование (проверку) старой папки (если не производит сам - помогите ему сделать это), и будет докачивать только те серии которых у вас ещё нет. Старые серии при этом не удаляются, а продолжают раздаваться!
    Eсли вы уже удалили старые серии, то предотвратить повторную закачку старых серий можно, отжав галочку в соответствующих местах при запуске нового торрента. По возможности, желательно не удалять старые серии как можно дольше чтобы релизёр не столько продолжал раздавать старые серии, а смог сконцентрироваться на новых.


    Код:

    General
    Complete name                            : H:\Легенды ( Legends)\Legends.s02e03.WEB-DLRip-AVC.NewStudio.TV.mp4
    Format                                   : MPEG-4
    Format profile                           : Base Media
    Codec ID                                 : isom
    File size                                : 838 MiB
    Duration                                 : 41mn 42s
    Overall bit rate                         : 2 807 Kbps
    Writing application                      : XviD4PSP 7.0.163
    iTunMOVI                                 : <?xml version="1.0" encoding="UTF-8"?> / <!DOCTYPE plist PUBLIC "-//Apple//DTD PLIST 1.0//EN" "http://www.apple.com/DTDs/PropertyList-1.0.dtd"> / <plist version="1.0"> / <dict> /     <key>encoding_info</key> /     <array> /         <dict> /             <key>name</key> /             <string>MATROSKA</string> /         </dict> /         <dict> /             <key>name</key> /             <string><![CDATA[WEBM > MP4 / H264 > X264 CBR 2200kbps HQ1 / AC3 > AC3 CBR 384kbps / AC3 > AC3 CBR 384kbps]]></string> /         </dict> /     </array> / </dict> / </plist>

    Video
    ID                                       : 1
    Format                                   : AVC
    Format/Info                              : Advanced Video Codec
    Format profile                           : High@L3.1
    Format settings, CABAC                   : Yes
    Format settings, ReFrames                : 4 frames
    Codec ID                                 : avc1
    Codec ID/Info                            : Advanced Video Coding
    Duration                                 : 41mn 42s
    Bit rate                                 : 2 034 Kbps
    Nominal bit rate                         : 2 200 Kbps
    Width                                    : 1 024 pixels
    Height                                   : 576 pixels
    Display aspect ratio                     : 16:9
    Frame rate mode                          : Constant
    Frame rate                               : 23.976 fps
    Color space                              : YUV
    Chroma subsampling                       : 4:2:0
    Bit depth                                : 8 bits
    Scan type                                : Progressive
    Bits/(Pixel*Frame)                       : 0.144
    Stream size                              : 607 MiB (72%)
    Writing library                          : x264 core 148 r2579M 73ae2d1
    Encoding settings                        : cabac=1 / ref=3 / deblock=1:-1:-1 / analyse=0x3:0x133 / me=hex / subme=7 / psy=1 / psy_rd=1,00:0,20 / mixed_ref=1 / me_range=16 / chroma_me=1 / trellis=1 / 8x8dct=1 / cqm=0 / deadzone=21,11 / fast_pskip=1 / chroma_qp_offset=-3 / threads=6 / lookahead_threads=1 / sliced_threads=0 / nr=0 / decimate=1 / interlaced=0 / bluray_compat=0 / constrained_intra=0 / bframes=3 / b_pyramid=2 / b_adapt=2 / b_bias=0 / direct=3 / weightb=1 / open_gop=0 / weightp=2 / keyint=230 / keyint_min=23 / scenecut=40 / intra_refresh=0 / rc_lookahead=40 / rc=cbr / mbtree=1 / bitrate=2200 / ratetol=1,0 / qcomp=0,60 / qpmin=0 / qpmax=69 / qpstep=4 / vbv_maxrate=2200 / vbv_bufsize=2200 / nal_hrd=none / filler=0 / ip_ratio=1,40 / aq=1:1,00
    Language                                 : English
    Color primaries                          : BT.709-5, BT.1361, IEC 61966-2-4, SMPTE RP177
    Transfer characteristics                 : BT.709-5, BT.1361
    Matrix coefficients                      : BT.709-5, BT.1361, IEC 61966-2-4 709, SMPTE RP177

    Audio #1
    ID                                       : 2
    Format                                   : AC-3
    Format/Info                              : Audio Coding 3
    Mode extension                           : CM (complete main)
    Codec ID                                 : ac-3
    Duration                                 : 41mn 42s
    Bit rate mode                            : Constant
    Bit rate                                 : 384 Kbps
    Channel(s)                               : 6 channels
    Channel positions                        : Front: L C R, Side: L R, LFE
    Sampling rate                            : 48.0 KHz
    Bit depth                                : 16 bits
    Compression mode                         : Lossy
    Stream size                              : 115 MiB (14%)
    Title                                    : NewStudio.TV
    Language                                 : Russian

    Audio #2
    ID                                       : 3
    Format                                   : AC-3
    Format/Info                              : Audio Coding 3
    Mode extension                           : CM (complete main)
    Codec ID                                 : ac-3
    Duration                                 : 41mn 42s
    Bit rate mode                            : Constant
    Bit rate                                 : 384 Kbps
    Channel(s)                               : 6 channels
    Channel positions                        : Front: L C R, Side: L R, LFE
    Sampling rate                            : 48.0 KHz
    Bit depth                                : 16 bits
    Compression mode                         : Lossy
    Stream size                              : 115 MiB (14%)
    Language                                 : English




    Скриншоты:
    скриншот   скриншот   скриншот   скриншот   скриншот   скриншот  
    скриншот  

    Раздача ведётся путём добавления новых серий. Добавлена 10 серия (09.01.2016).Просьба перекачать торрент файл.

    pb.wtf



  • Скачать Легенды через торрент http://i74.fastpic.ru/big/2015/1129/52/cd1bc76f688a58c463aa26aab6c75752.jpeg Скачать фильм Легенды через торрент бесплантно в хорошем качестве qw.png Работая на ФБР, Мартин специализировался на работе под глубоким прикрытием, буквально полностью перевоплощался в другую личность, ... 9.9 10 9
    Info! Золотая раздача, скачанное не засчитывается.
    Торрент: Зарегистрирован [2016-01-09 03:03] · скачан: 75 раз
    Статус: √ проверено
    Размер: 8.46 GB
    Как cкачать? Как скачать Легенды через торрент | qTorrent



    Последний раз редактировалось: GEKADOL (2016-01-09 03:03), всего редактировалось 4 раз(а)

    28-11-2019 20:33  

    Отключить всю рекламу на сайте

    03-12-2015 03:44 Легенды Скачать торрент  

    Кто смотрел,как сериал?стоит не стоит смотреть?pb.wtf



    03-12-2015 03:56 Легенды Скачать торрент  

    bober100 писал(а):

    Кто смотрел,как сериал?стоит не стоит смотреть?

    Начните с первого сезона. pb.wtf



    24-12-2015 09:53 Легенды Скачать торрент  

    хороший сериалpb.wtf



    09-01-2016 07:40 Легенды Скачать торрент  

    Шон Бин не канонично пока выживает! наверно потому и рейтинги не высоки,- стоит ему крякнуть, накинут единичку минимум.pb.wtf



    10-01-2016 17:03 Легенды Скачать торрент  

    Нормально! Начал с первого сезона, пока зацепило.pb.wtf



    09-11-2017 15:09 Легенды Скачать торрент  

    блин его хоть кто-нибудь раздаёт ?pb.wtf



      Дорогой пользователь! Огромная просьба, поблагодарите релизера, оцените раздачу и оставьте свои комментарий, если Вы скачали Легенды через торрент бесплатно! Внесите свою лепту в развитие PiratBit!
      Комментировать посты могут только пользователи прошедшие не сложную регистрацию
      Показать сообщения:    

      Легенды через торрент
      Скачать бесплатно Легенды
      Легенды скачать торрент
      Легенды смотреть онлайн
      Cкачать фильм Легенды бесплатно
      Легенды скачать торрент в хорошем качестве
      Легенды смотреть онлайн бесплатно в хорошем качестве


      Вы не можете начинать темы
      Вы не можете отвечать на сообщения
      Вы не можете редактировать свои сообщения
      Вы не можете удалять свои сообщения
      Вы не можете голосовать в опросах
      Вы не можете прикреплять файлы к сообщениям
      Вы можете скачивать файлы