2 сезон

iTunes

MVO

1

2 сезон

iTunes

iTunes

1 сезон

RePack

30

Ultimate

ВАЖНО

ИГРА 18+

pack

RePack

MK11
pack

Легкие деньги

RePack

jed

RePack

fifa19

RePack

RDR2

RePack

NEED FOR SPEED™ PAYBACK

4 сезон

9 сезон

Бесстыжие 9 сезон

Все сериалы

все сериалы на PB.wtf

RePack

FAR CRY 5

Anonymous, доброе утро, мы не успеваем собрать деньги на оплату серверов за декабрь и январь, помогите нам пожалуйста в это трудное время. В качестве благодарности мы отключим Вам всю рекламу на сайте (укажите свой ник в строку Ваше имя)!

×
  
Magnet ссылка

BBC. Всё о мире обезьян (1-3 серии из 3) / Monkeys Revealed (Крис Колле / Chris Cole) [2014, Документальный, природа, животные, SATRip] pb.wtf

BBC. Всё о мире обезьян через торрент pb.wtf

Размер: 2.01 GB | Добавлен: 5 лет 1 мес. назад | Торрент скачан:91 раз
Скачать  

30-11-2015 09:12 BBC. Всё о мире обезьян Скачать торрент  

BBC. Всё о мире обезьян / Monkeys Revealed

Дата/Год выпуска: 2014
Страна: Великобритания, British Broadcasting Corporation (BBC)
Жанр: Документальный, природа, животные
Продолжительность: 3 x ~ 00:50:00
Перевод: Профессиональный (дублированный)
Русские субтитры: нет

Оригинальная аудиодорожка: нет
Режиссер: Крис Колле / Chris Cole

Описание: Новый сериал от мастеров жанра канала ВВС. На этот раз мы не просто станем свидетелями жизни обезьян, а перенесемся в их мир и увидим насколько мы похожи

Семпл:http://sendfile.su/1144429

качество: SATRip
формат: AVI
Видео: Xvid 720x400 25fps 1 750 Kbps
Аудио: AC3 48000Hz stereo 192kbps
01. The Prime Design / Первые приматы
02. Family Matters / Обезьянки
03. Master Minds / Человекообразные
Format : AVI
Format/Info : Audio Video Interleave
File size : 690 MiB
Duration : 49mn 27s
Overall bit rate : 1 951 Kbps
Movie name : 03. Master Minds
Director : SATRip by Thunder
Writing application : VirtualDubMod 1.5.10.3 | www.virtualdub-fr.org || (build 2550/release)
Original source form/Name : Documentary
Video #0
ID : 0
Format : MPEG-4 Visual
Format profile : Advanced Simple@L5
Format settings, BVOP : Yes
Format settings, QPel : No
Format settings, GMC : No warppoints
Format settings, Matrix : Default (H.263)
Codec ID : XVID
Codec ID/Hint : XviD
Duration : 49mn 27s
Bit rate : 1 749 Kbps
Width : 720 pixels
Height : 400 pixels
Display aspect ratio : 16:9
Frame rate : 25.000 fps
Color space : YUV
Chroma subsampling : 4:2:0
Bit depth : 8 bits
Scan type : Progressive
Bits/(Pixel*Frame) : 0.243
Stream size : 619 MiB (90%)
Writing library : XviD 1.2.1 (UTC 2008-12-04)
Audio #1
ID : 1
Format : AC-3
Format/Info : Audio Coding 3
Mode extension : CM (complete main)
Codec ID : 2000
Duration : 49mn 27s
Bit rate mode : Constant
Bit rate : 192 Kbps
Channel(s) : 2 channels
Channel positions : Front: L R
Sampling rate : 48.0 KHz
Bit depth : 16 bits
Stream size : 67.9 MiB (10%)
Alignment : Split accross interleaves
Interleave, duration : 40 ms (1.00 video frame)
Interleave, preload duration : 500 ms
pb.wtf



Скачать BBC. Всё о мире обезьян через торрент http://i71.fastpic.ru/big/2015/0809/ee/84d4b375a6cad00622804efb40d2e2ee.jpg Скачать фильм BBC. Всё о мире обезьян через торрент бесплантно в хорошем качестве Описание: Новый сериал от мастеров жанра канала ВВС. На этот раз мы не просто станем свидетелями жизни обезьян, а перенесемся в их мир и ... 8.5 10 2
Торрент: Зарегистрирован [2015-11-30 09:12] · скачан: 91 раз
Статус: √ проверено
Размер: 2.01 GB
Как cкачать? Как скачать BBC. Всё о мире обезьян через торрент | UTorrent

28-11-2019 20:33  

Отключить всю рекламу на сайте

    Дорогой пользователь! Огромная просьба, поблагодарите релизера, оцените раздачу и оставьте свои комментарий, если Вы скачали BBC. Всё о мире обезьян через торрент бесплатно! Внесите свою лепту в развитие PiratBit!
    Комментировать посты могут только пользователи прошедшие не сложную регистрацию
    Показать сообщения:    

    BBC. Всё о мире обезьян через торрент
    Скачать бесплатно BBC. Всё о мире обезьян
    BBC. Всё о мире обезьян скачать торрент
    BBC. Всё о мире обезьян смотреть онлайн
    Cкачать фильм BBC. Всё о мире обезьян бесплатно
    BBC. Всё о мире обезьян скачать торрент в хорошем качестве
    BBC. Всё о мире обезьян смотреть онлайн бесплатно в хорошем качестве


    Вы не можете начинать темы
    Вы не можете отвечать на сообщения
    Вы не можете редактировать свои сообщения
    Вы не можете удалять свои сообщения
    Вы не можете голосовать в опросах
    Вы не можете прикреплять файлы к сообщениям
    Вы можете скачивать файлы