2 сезон

iTunes

1 сезон

1

iTunes

iTunes

iTunes

1 сезон

RePack

30

ИГРА 18+

pack

ВАЖНО

!!Акция!!

Alien_RageХит недели

RePack

MK11
pack

Забери бонус

RePack

jed

!!Акция!!

Alien_Rage

RePack

fifa19

RePack

Assassins Creed: Odyssey

RePack

NEED FOR SPEED™ PAYBACK

4 сезон

9 сезон

Бесстыжие 9 сезон

Все сериалы

все сериалы на PB.wtf

RePack

FAR CRY 5
  

Падение / The Falling (Кэрол Морли) [2014, драма, детектив, BDRip 1080p, Профессиональный многоголосый [официальный звук] pb.wtf

Падение через торрент pb.wtf

Размер: 7.78 GB | Добавлен: 4 года 10 мес. назад | Торрент скачан:41 раз
Скачать  

01-12-2015 08:53 Падение Скачать торрент  


Падение / The Falling


ИНФОРМАЦИЯ:
Год выпуска:2014
Страна: Великобритания
Жанр: драма, детектив
Продолжительность: 01:42:13
Перевод: Профессиональный многоголосый [официальный звук]
Субтитры: английские (SDH),
Режиссер: Кэрол Морли

В Ролях:


Мэйси Уильямс (Lydia), Флоренс Пью (Abbie), Грета Скакки (Miss Mantel), Моника Долан (Miss Alvaro), Максин Пик (Eileen), Анна Барнетт (Susan), Роуз Кэтон (Titch), Lauren McCrostie (Gwen), Кэти Найт (Connie), Эви Хутон (Janet), Мэтью Бэйнтон (Mr. Hopkins), Морфидд Кларк (Miss Charron)

Описание:
1969 год, Англия. Лидия и Эбби - лучшие подруги и учащиеся школы для девочек. Лидия, страдающая агорафобией, очень привязывается к Эбби, которая находится на стадии исследования своей сексуальности. Внезапно Лидия начинает страдать от обмороков, как и все остальные девушки в школе. Она полна решимости обнаружить причину этой «эпидемии», призвав администрацию школы принять меры.

  • Мировая премьера:11 октября 2014

    ТЕХ.ДАННЫЕ:
    Качество: BDRip 1080p
    Формат: MKV
    Видео: AVC, 1920x1040 (16:9), 9942 kbps, 24 fps, 0,207 bpp
    Аудио №1: русский / AC3 / 2.0 / 48 kHz / 192 kbps / 16 bit ||
    Аудио №2: английский / DTS / 5.1 / 48 kHz / 755 kbps / 24 bit
    Навигация по главам: есть


    General
    Unique ID : 224057474552254884583678905675482255038 (0xA88FE66326329B088B14E592DA59CEBE)
    Complete name : D:\Торенты\Paden1e.2014.P.BDRip.1080p.mkv
    Format : Matroska
    Format version : Version 4 / Version 2
    File size : 7.78 GiB
    Duration : 1h 42mn
    Overall bit rate : 10.9 Mbps
    Encoded date : UTC 2015-12-01 06:09:01
    Writing application : mkvmerge v8.2.0 ('World of Adventure') 64bit
    Writing library : libebml v1.3.1 + libmatroska v1.4.2

    Video
    ID : 1
    Format : AVC
    Format/Info : Advanced Video Codec
    Format profile : High@L4.1
    Format settings, CABAC : Yes
    Format settings, ReFrames : 4 frames
    Codec ID : V_MPEG4/ISO/AVC
    Duration : 1h 42mn
    Bit rate : 9 942 Kbps
    Width : 1 920 pixels
    Height : 1 040 pixels
    Display aspect ratio : 16:9
    Frame rate : 24.000 fps
    Color space : YUV
    Chroma subsampling : 4:2:0
    Bit depth : 8 bits
    Scan type : Progressive
    Bits/(Pixel*Frame) : 0.207
    Stream size : 6.95 GiB (89%)
    Writing library : x264 core 148 r2597 e86f3a1
    Encoding settings : cabac=1 / ref=4 / deblock=1:0:0 / analyse=0x3:0x133 / me=umh / subme=7 / psy=1 / psy_rd=1.00:0.00 / mixed_ref=1 / me_range=16 / chroma_me=1 / trellis=1 / 8x8dct=1 / cqm=0 / deadzone=21,11 / fast_pskip=0 / chroma_qp_offset=-2 / threads=32 / lookahead_threads=5 / sliced_threads=0 / nr=0 / decimate=1 / interlaced=0 / bluray_compat=0 / constrained_intra=0 / bframes=3 / b_pyramid=2 / b_adapt=1 / b_bias=0 / direct=1 / weightb=1 / open_gop=0 / weightp=2 / keyint=250 / keyint_min=23 / scenecut=40 / intra_refresh=0 / rc_lookahead=40 / rc=2pass / mbtree=1 / bitrate=9942 / ratetol=1.0 / qcomp=0.60 / qpmin=0 / qpmax=69 / qpstep=4 / cplxblur=20.0 / qblur=0.5 / ip_ratio=1.40 / aq=1:1.00
    Language : English
    Default : Yes
    Forced : No

    Audio #1
    ID : 2
    Format : AC-3
    Format/Info : Audio Coding 3
    Mode extension : CM (complete main)
    Codec ID : A_AC3
    Duration : 1h 42mn
    Bit rate mode : Constant
    Bit rate : 192 Kbps
    Channel(s) : 2 channels
    Channel positions : Front: L R
    Sampling rate : 48.0 KHz
    Bit depth : 16 bits
    Compression mode : Lossy
    Stream size : 140 MiB (2%)
    Language : Russian
    Default : Yes
    Forced : Yes

    Audio #2
    ID : 3
    Format : DTS
    Format/Info : Digital Theater Systems
    Codec ID : A_DTS
    Duration : 1h 42mn
    Bit rate mode : Constant
    Bit rate : 755 Kbps
    Channel(s) : 6 channels
    Channel positions : Front: L C R, Side: L R, LFE
    Sampling rate : 48.0 KHz
    Bit depth : 24 bits
    Compression mode : Lossy
    Stream size : 552 MiB (7%)
    Language : English
    Default : No
    Forced : No

    Text
    ID : 4
    Format : UTF-8
    Codec ID : S_TEXT/UTF8
    Codec ID/Info : UTF-8 Plain Text
    Title : SDH
    Language : English
    Default : No
    Forced : No

    Menu
    00:00:00.000 : en:00:00:00.000
    00:07:39.083 : en:00:08:39.083
    00:15:54.167 : en:00:16:54.167
    00:23:13.042 : en:00:24:13.042
    00:32:23.833 : en:00:33:23.833
    00:41:20.458 : en:00:42:20.458
    00:47:32.667 : en:00:48:32.667
    00:57:56.125 : en:00:58:56.125
    01:04:08.500 : en:01:05:08.500
    01:15:40.833 : en:01:16:40.833
    01:22:35.917 : en:01:23:35.917
    01:28:49.042 : en:01:29:49.042
    Скриншоты:

    © Оформление by .::Ворон::.
    pb.wtf



  • Скачать Падение через торрент http://pic.kartinco.top/images/6/ordi9.jpg Скачать фильм Падение через торрент бесплантно в хорошем качестве Описание: 1969 год, Англия. Лидия и Эбби - лучшие подруги и учащиеся школы для девочек. Лидия, страдающая агорафобией, очень привязывается ... 6 10 3
    Торрент: Зарегистрирован [2015-12-01 08:53] · скачан: 41 раз
    Статус: T временная
    Размер: 7.78 GB
    Как cкачать? Как скачать Падение через торрент | qTorrent

    % Раздел Тема Автор DL S | L
    T Фильмы 2014 [DVDrip, WEB-DLRip, HDrip] [ 1.47 GB ] Падение / The Falling [2014 HDRip многоголосый [официальный звук] Ворон Скачать
    1 | 0
    Фильмы 2014 (Звук TS, Cam, VO, DVO) [ 1.37 GB ] Падение / The Falling [2014 HDRip [2D] Ворон Скачать
    1 | 0

    28-11-2019 20:33  

    Отключить всю рекламу на сайте

    01-12-2015 09:07 Падение Скачать торрент  

    Valor Morgulispb.wtf



    01-12-2015 09:25 Падение Скачать торрент  

    valar dohaerispb.wtf



      Дорогой пользователь! Огромная просьба, поблагодарите релизера, оцените раздачу и оставьте свои комментарий, если Вы скачали Падение через торрент бесплатно! Внесите свою лепту в развитие PiratBit!
      Комментировать посты могут только пользователи прошедшие не сложную регистрацию
      Показать сообщения:    

      Падение через торрент
      Скачать бесплатно Падение
      Падение скачать торрент
      Падение смотреть онлайн
      Cкачать фильм Падение бесплатно
      Падение скачать торрент в хорошем качестве
      Падение смотреть онлайн бесплатно в хорошем качестве


      Вы не можете начинать темы
      Вы не можете отвечать на сообщения
      Вы не можете редактировать свои сообщения
      Вы не можете удалять свои сообщения
      Вы не можете голосовать в опросах
      Вы не можете прикреплять файлы к сообщениям
      Вы можете скачивать файлы