новый адрес
Мега распродажа FORZA HORIZON 4 ULTIMATE+ВСЕ DLC+ОНЛАЙН всего за 499р. 349 руб. (супер цена). Внимание количество ограничено!!!

iTunes

1+1

iTunes

мы

iTunes

1

iTunes

Чернобыль

iTunes

Ральф против интернета

Лицензия

ПШазам

Лицензия

Игра престолов

Лицензия

30
pack

ВАЖНО

!!Акция!!

Alien_RageХит недели

RePack

Resident Evil 21

ИГРА 18+

pack

RePack

Metro:Exodus

!!Акция!!

Alien_Rage

RePack

fifa19

RePack

Assassins Creed: Odyssey

RePack

NEED FOR SPEED™ PAYBACK

3 сезон

9 сезон

Бесстыжие 9 сезон

Все сериалы

все сериалы на PB.wtf

RePack

FAR CRY 5
Ребята, катастрофически не хватает 1900р. для оплаты серверов за Октябрь (всвязи с блокировками трафик упал в 3 раза), 1-2р., выручайте.
  

Никто не хотел умирать (Витаутас Жалакявичюс) [1965, СССР, боевик, драма, вестерн, история, DVDRip от AVP Studio] pb.wtf

Никто не хотел умирать через торрент pb.wtf

Раздают: 1 [ 0 KB/s ]
Размер: 1.09 GB | Добавлен: 3 года 11 мес. назад | Торрент скачан:58 раз
Скачать  

01-12-2015 09:53 Никто не хотел умирать Скачать торрент  

Никто не хотел умирать
Страна: СССР
Производство: Литовская киностудия

Жанр: боевик, драма, вестерн, история
Год выпуска: 1965
Продолжительность: 01:40:26

Перевод: Не требуется
Cубтитры: нет
Оригинальная аудиодорожка: русский

Режиссер: Витаутас Жалакявичюс

В ролях:
Казимирас Виткус, Донатас Банионис, Регимантас Адомайтис, Юозас Будрайтис, Альгимантас Масюлис, Бруно Оя, Вия Артмане, Дангуоле Баукайте, Эугения Шулгайте, Антанас Шурна, Бронюс Бабкаускас, Лаймонас Норейка, Витаутас Томкус...
Полный список актёров

Описание:
1947 год. В литовских лесах еще прячутся вооруженные банды из бывших полицейских, офицеров, кулацких сынков. Один за другим убиты четыре председателя сельсовета. Теперь погиб старый Локис. На похоронах четверо его сыновей клянутся не покидать деревню до тех пор, пока не уничтожат банду Домового...
Выпуск фильма - 5 сентября 1966 г.

Источник: DVD5 R5
Качество видео: DVDRip
Формат видео: AVI

Видео: 688x368 (1,85:1), 25 fps, XviD ~ 1350 kbps avg, 0.213 bit/pixel
Аудио: 48 kHz, Dolby Digital AC3 2.0, 192 kbps

Раздача от:
Общее
Полное имя : Nikto.ne.hotel.umirat.1965.DVDRip_[New-team]_by_AVP_Studio.avi
Формат : AVI
Формат/Информация : Audio Video Interleave
Размер файла : 1,09 Гбайт
Продолжительность : 1 ч. 40 м.
Общий поток : 1551 Кбит/сек
Программа кодирования : VirtualDubMod 1.5.10.3 | www.virtualdub-fr.org || (build 2550/release)
Библиотека кодирования : VirtualDubMod build 2550/release

Видео
Идентификатор : 0
Формат : MPEG-4 Visual
Профиль формата : Advanced Simple@L5
Параметр BVOP формата : 1
Параметр QPel формата : Нет
Параметр GMC формата : Без точки перехода
Параметр матрицы формата : Выборочная
Идентификатор кодека : XVID
Идентификатор кодека/Подсказка : XviD
Продолжительность : 1 ч. 40 м.
Битрейт : 1350 Кбит/сек
Ширина : 688 пикселей
Высота : 368 пикселей
Соотношение сторон : 1,85:1
Частота кадров : 25,000 кадров/сек
Цветовое пространство : YUV
Субдискретизация насыщенности : 4:2:0
Битовая глубина : 8 бит
Тип развёртки : Прогрессивная
Метод сжатия : С потерями
Бит/(Пиксели*Кадры) : 0.213
Размер потока : 970 Мбайт (87%)
Библиотека кодирования : XviD 73

Аудио
Идентификатор : 1
Формат : AC-3
Формат/Информация : Audio Coding 3
Расширение режима : CM (complete main)
Параметр Endianness формата : Big
Идентификатор кодека : 2000
Продолжительность : 1 ч. 40 м.
Вид битрейта : Постоянный
Битрейт : 192 Кбит/сек
Каналы : 2 канала
Расположение каналов : Front: L R
Частота : 48,0 КГц
Метод сжатия : С потерями
Размер потока : 138 Мбайт (12%)
Выравнивание : Разделение по промежуткам
Продолжительность промежутка : 40 мс. (1,00 видеокадр)
Время предзагрузки промежутка : 500 мс
pb.wtf



Скачать Никто не хотел умирать через торрент http://s019.radikal.ru/i643/1512/40/032b0f270c8c.png Скачать фильм Никто не хотел умирать через торрент бесплантно в хорошем качестве Описание:1947 год. В литовских лесах еще прячутся вооруженные банды из бывших полицейских, офицеров, кулацких сынков. Один за другим убиты ... 10 10 1
Торрент: Зарегистрирован [2015-12-01 09:53] · скачан: 58 раз
Статус: √ проверено
Размер: 1.09 GB
Как cкачать? Как скачать Никто не хотел умирать через торрент | qTorrent

% Раздел Тема Автор DL S | L
Кино СССР [ 1.09 GB ] Никто не хотел умирать [1965 СССР история DVDRip-AVC от AVP Studio] AVP Studio Скачать
1 | 0


>> Регистрируемся здесь <<






Отзывы и комментарии о схеме читаем и пишем здесь: ---> Отзывы и комментарии о схеме

Новые благодарочки в телеграм довольных пользователей:
скриншот   скриншот   скриншот   скриншот   скриншот
    Дорогой пользователь! Огромная просьба, поблагодарите релизера, оцените раздачу и оставьте свои комментарий, если Вы скачали Никто не хотел умирать через торрент бесплатно! Внесите свою лепту в развитие PiratBit!
    Комментировать посты могут только пользователи прошедшие не сложную регистрацию
    Показать сообщения:    

    Никто не хотел умирать через торрент
    Скачать бесплатно Никто не хотел умирать
    Никто не хотел умирать скачать торрент
    Никто не хотел умирать смотреть онлайн
    Cкачать фильм Никто не хотел умирать бесплатно
    Никто не хотел умирать скачать торрент в хорошем качестве
    Никто не хотел умирать смотреть онлайн бесплатно в хорошем качестве


    Вы не можете начинать темы
    Вы не можете отвечать на сообщения
    Вы не можете редактировать свои сообщения
    Вы не можете удалять свои сообщения
    Вы не можете голосовать в опросах
    Вы не можете прикреплять файлы к сообщениям
    Вы можете скачивать файлы