2 сезон

iTunes

MVO

1

2 сезон

iTunes

iTunes

1 сезон

RePack

30

Новинка

ВАЖНО

ИГРА 18+

pack

RePack

MK11
pack

Легкие деньги

RePack

jed

RePack

fifa19

RePack

RDR2

RePack

NEED FOR SPEED™ PAYBACK

4 сезон

9 сезон

Бесстыжие 9 сезон

Все сериалы

все сериалы на PB.wtf

RePack

FAR CRY 5

Anonymous, доброй ночи, мы не успеваем собрать деньги на оплату серверов за декабрь и январь, помогите нам пожалуйста в это трудное время. В качестве благодарности мы отключим Вам всю рекламу на сайте (укажите свой ник в строку Ваше имя)!

×
  
Magnet ссылка

Черные метки / The Art of the Steal (Джонатан Собол / Jonathan Sobol) [2013, Канада, США, комедия, криминал, BDRip-AVC от sokol_ok] MVO [Лицензия] pb.wtf

Черные метки через торрент pb.wtf

Раздают: 1 [ 0 KB/s ]
Размер: 2.18 GB | Добавлен: 5 лет 1 мес. назад | Торрент скачан:133 раза
Скачать  

01-12-2015 11:34 Черные метки Скачать торрент  

Черные метки
The Art of the Steal

«It takes a great artist to pull off the perfect con»


Страна: Канада, США
Жанр: комедия, криминал

Год выпуска: 2013
Продолжительность: 01:30:18

Перевод: Профессиональный (многоголосый, закадровый) [Лицензия R5]
Субтитры: русские (Janetta), украинские, английские (SDH), английские (SDH-Colored)
Оригинальная аудиодорожка: Английский

Режиссер: Джонатан Собол / Jonathan Sobol

В ролях: Курт Рассел, Джей Барушель, Мэтт Диллон, Крис Диамантополос, Кеннет Уэлш, Джейсон Джонс, Теренс Стэмп, Кэтрин Уинник, Девон Бостик, Эль Даунс, Дакс Рэвин, Durward Allan

Описание:
Фильм рассказывает о байкере-сорвиголове, специализирующемся на краже произведений искусства. Он уже было собрался завязать с преступным прошлым, но все-таки не находит в себе силы отказаться от осуществления еще одной очень заманчивой кражи вместе со своим неблагонадежным братцем. Все в итоге идет наперекосяк, поскольку оказывается, что у каждого из братьев свой план. Релиз:

Автор рипа: Stalker oK

Сэмпл

Качество видео: BDRip-AVC [bluebird / Blu-ray Disc / 1080p]
Формат видео: MKV
Видео кодек: AVC
Аудио кодек: AC3
Видео: 2630 Кбит/сек, 1152*480 (2,40:1), в 23,976 кадр/сек, AVC
Аудио #1: Russian, 384 Кбит/сек, 48,0 КГц, 16 бит, 6 канала(ов), AC-3
Аудио #2: English, 448 Кбит/сек, 48,0 КГц, 16 бит, 6 канала(ов), AC-3
Навигация по главам: есть

Общее
Уникальный идентификатор : 207059113648237542283299621249812283646 (0x9BC6227D3A9C1A66AB1B4945618440FE)
Полное имя : M:\Rips\The Art of the Steal\The.Art.of.the.Steal.2013.BDRip-AVC.MVO.2.18Gb...stalkerok.new-team.mkv
Формат : Matroska
Размер файла : 2,18 Гбайт
Продолжительность : 1 ч. 30 м.
Общий поток : 3459 Кбит/сек
Название фильма : The Art of the Steal (2013) (New-Team) (Rip by Stalker oK)
Дата кодирования : UTC 2015-12-02 09:19:03
Программа кодирования : mkvmerge v7.9.0 ('Birds') 64bit
Библиотека кодирования : libebml v1.3.1 + libmatroska v1.4.2

Видео
Идентификатор : 1
Формат : AVC
Формат/Информация : Advanced Video Codec
Профиль формата : High@L4.1
Параметр CABAC формата : Да
Параметр ReFrames формата : 13 кадры
Идентификатор кодека : V_MPEG4/ISO/AVC
Продолжительность : 1 ч. 30 м.
Битрейт : 2630 Кбит/сек
Ширина : 1152 пикс.
Высота : 480 пикс.
Соотношение сторон : 2,40:1
Частота кадров : 23,976 кадр/сек
Цветовое пространство : YUV
Подвыборка цветности : 4:2:0
Битовая глубина : 8 бит
Тип развёртки : Прогрессивная
Бит/(Пиксели*Кадры) : 0.198
Размер потока : 1,61 Гбайт (74%)
Заголовок : The Art of the Steal (2013) (New-Team) (Rip by Stalker oK)
Библиотека кодирования : x264 core 146 r2538kMod 121396c
Настройки программы : cabac=1 / ref=13 / deblock=1:-3:-3 / analyse=0x3:0x133 / me=umh / subme=11 / psy=1 / fade_compensate=0.00 / psy_rd=1.00:0.10 / mixed_ref=1 / me_range=48 / chroma_me=1 / trellis=2 / 8x8dct=1 / cqm=0 / deadzone=21,11 / fast_pskip=0 / chroma_qp_offset=-3 / threads=12 / lookahead_threads=3 / sliced_threads=0 / nr=0 / decimate=0 / interlaced=0 / bluray_compat=0 / constrained_intra=0 / fgo=0 / bframes=13 / b_pyramid=2 / b_adapt=2 / b_bias=0 / direct=3 / weightb=1 / open_gop=0 / weightp=2 / keyint=240 / keyint_min=23 / scenecut=40 / intra_refresh=0 / rc_lookahead=60 / rc=2pass / mbtree=0 / bitrate=2630 / ratetol=1.0 / qcomp=0.70 / qpmin=0 / qpmax=69 / qpstep=4 / cplxblur=20.0 / qblur=0.5 / vbv_maxrate=50000 / vbv_bufsize=62500 / nal_hrd=none / filler=0 / ip_ratio=1.40 / pb_ratio=1.30 / aq=3:0.85

Аудио #1
Идентификатор : 2
Формат : AC-3
Формат/Информация : Audio Coding 3
Расширение режима : CM (complete main)
Идентификатор кодека : A_AC3
Продолжительность : 1 ч. 30 м.
Вид битрейта : Постоянный
Битрейт : 384 Кбит/сек
Канал(ы) : 6 канала(ов)
Расположение каналов : Front: L C R, Side: L R, LFE
Частота : 48,0 КГц
Битовая глубина : 16 бит
Метод сжатия : С потерями
Размер потока : 248 Мбайт (11%)
Язык : Russian

Аудио #2
Идентификатор : 3
Формат : AC-3
Формат/Информация : Audio Coding 3
Расширение режима : CM (complete main)
Идентификатор кодека : A_AC3
Продолжительность : 1 ч. 30 м.
Вид битрейта : Постоянный
Битрейт : 448 Кбит/сек
Канал(ы) : 6 канала(ов)
Расположение каналов : Front: L C R, Side: L R, LFE
Частота : 48,0 КГц
Битовая глубина : 16 бит
Метод сжатия : С потерями
Размер потока : 289 Мбайт (13%)
Язык : English

Текст #1
Идентификатор : 4
Формат : UTF-8
Идентификатор кодека : S_TEXT/UTF8
Идентификатор кодека/Информация : UTF-8 Plain Text
Заголовок : Janetta
Язык : Russian

Текст #2
Идентификатор : 5
Формат : UTF-8
Идентификатор кодека : S_TEXT/UTF8
Идентификатор кодека/Информация : UTF-8 Plain Text
Язык : Ukrainian

Текст #3
Идентификатор : 6
Формат : UTF-8
Идентификатор кодека : S_TEXT/UTF8
Идентификатор кодека/Информация : UTF-8 Plain Text
Заголовок : SDH
Язык : English

Текст #4
Идентификатор : 7
Формат : UTF-8
Идентификатор кодека : S_TEXT/UTF8
Идентификатор кодека/Информация : UTF-8 Plain Text
Заголовок : SDH-Colored
Язык : English

Меню
00:00:00.000 : en:Chapter 1
00:05:06.347 : en:Chapter 2
00:10:32.256 : en:Chapter 3
00:17:03.480 : en:Chapter 4
00:21:52.352 : en:Chapter 5
00:27:33.068 : en:Chapter 6
00:33:23.793 : en:Chapter 7
00:41:40.539 : en:Chapter 8
00:46:21.528 : en:Chapter 9
00:50:57.429 : en:Chapter 10
00:56:38.728 : en:Chapter 11
01:02:27.827 : en:Chapter 12
01:07:25.374 : en:Chapter 13
01:12:30.179 : en:Chapter 14
01:18:13.897 : en:Chapter 15
01:23:54.070 : en:Chapter 16
pb.wtf



Скачать Черные метки через торрент http://i72.fastpic.ru/big/2015/0531/46/68ef8a2783b58e5344cc30bbd3f1b046.png Скачать фильм Черные метки через торрент бесплантно в хорошем качестве Описание:Фильм рассказывает о байкере-сорвиголове, специализирующемся на краже произведений искусства. Он уже было собрался завязать с ... 9.3 10 13
Торрент: Зарегистрирован [2015-12-02 09:43] · скачан: 133 раз
Статус: √ проверено
Размер: 2.18 GB
Как cкачать? Как скачать Черные метки через торрент | UTorrent

% Раздел Тема Автор DL S | L
Фильмы 2013 [DVDrip, WEB-DLRip, HDrip] [ 1.45 GB ] Черные метки / The Art of the Steal [2013 BDRip-AVC от sokol_ok] MVO [] sokol_ok Скачать
2 | 0
Фильмы 2014 [DVDrip, WEB-DLRip, HDrip] [ 1.37 GB ] Черные метки / The Art of the Steal [2013 HDRip [лицензия] Ворон Скачать
1 | 0
Фильмы (DVD фильмы) [ 7.12 GB ] Черные метки / The Art of the Steal [2013 DVD9] R5 voovaz Скачать
1 | 0
Фильмы 2014 [DVDrip, WEB-DLRip, HDrip] [ 1.42 GB ] Черные метки / The Art of the Steal [2014 BDRip-AVC] MVO potroks Скачать
1 | 0
Видео для КПК и Смартфонов [ 466 MB ] Черные метки / The Art of the Steal [2013 HDRip многоголосый] кэп Скачать
1 | 0
Фильмы [HD 720p, 1080p] (Хороший звук DUB, MVO) [ 6.76 GB ] Черные метки / The Art of the Steal [2013 BDRip 1080p Многоголосый закадровый Ворон Скачать
1 | 0
Фильмы с авторской озвучкой [ 1.47 GB ] Черные метки / The Art of the Steal [2013 WEB-DLRip Авторский ] coc900 Скачать
1 | 0

28-11-2019 20:33  

Отключить всю рекламу на сайте

02-12-2015 09:43 Черные метки Скачать торрент  

Добавлены русские субтитры.pb.wtf



    Дорогой пользователь! Огромная просьба, поблагодарите релизера, оцените раздачу и оставьте свои комментарий, если Вы скачали Черные метки через торрент бесплатно! Внесите свою лепту в развитие PiratBit!
    Комментировать посты могут только пользователи прошедшие не сложную регистрацию
    Показать сообщения:    

    Черные метки через торрент
    Скачать бесплатно Черные метки
    Черные метки скачать торрент
    Черные метки смотреть онлайн
    Cкачать фильм Черные метки бесплатно
    Черные метки скачать торрент в хорошем качестве
    Черные метки смотреть онлайн бесплатно в хорошем качестве


    Вы не можете начинать темы
    Вы не можете отвечать на сообщения
    Вы не можете редактировать свои сообщения
    Вы не можете удалять свои сообщения
    Вы не можете голосовать в опросах
    Вы не можете прикреплять файлы к сообщениям
    Вы можете скачивать файлы