Ссылка на приватное зеркало нашего сайта всего за 1$. Внимание количество ограничено!!!

2 сезон

iTunes

1 сезон

1

iTunes

iTunes

iTunes

1 сезон

RePack

30

ИГРА 18+

pack

ВАЖНО

!!Акция!!

Alien_RageХит недели

RePack

MK11
pack

Забери бонус

RePack

jed

!!Акция!!

Alien_Rage

RePack

fifa19

RePack

Assassins Creed: Odyssey

RePack

NEED FOR SPEED™ PAYBACK

4 сезон

9 сезон

Бесстыжие 9 сезон

Все сериалы

все сериалы на PB.wtf

RePack

FAR CRY 5
  

Ника / Nika (Арнон Задок / Arnon Zadok) [2010, Израиль, драма, DVDRip от AVP Studio] pb.wtf

Ника через торрент pb.wtf

Размер: 1.46 GB | Добавлен: 4 года 10 мес. назад | Торрент скачан:33 раза
Скачать  

02-12-2015 10:25 Ника Скачать торрент  

Ника
Nika

Страна: Израиль
Производство: Rabinovich Film Fund Cinema Project, Tel-Aviv Doco

Жанр: драма
Год выпуска: 2010
Продолжительность: 01:28:36

Перевод: Не требуется
Cубтитры: нет
Оригинальная аудиодорожка: русский

Режиссер: Арнон Задок / Arnon Zadok

В ролях:
Ева Дора Эзельштейн, Валерий Каплан, Олег Левин, Мария Ованов, Элизабет Петровский, Игорь Шамуйлов, Алексей Штукин, Женя Вассерман...

Описание:
Юную украинку Нику похищают люди криминального авторитета Франко и запирают в пустой квартире. Через две недели ее должны продать в сексуальное рабство. Иван счастливо женат и растит маленькую дочку, но у него есть секрет — он только что проиграл все свои сбережения в карты. Теперь он должен денег тому самому Франко, и тот предлагает ему отработать долг. Сказав семье, что получил работу на фабрике, Иван отправляется охранять квартиру, в которой Ника дожидается своей незавидной участи.

Источник: DVD5 R5
Качество видео: DVDRip
Формат видео: AVI

Видео: 704x384 (1,85:1), 25 fps, XviD ~ 1902 kbps avg, 0.281 bit/pixel
Аудио: 48 kHz, Dolby Digital AC3 5.1, 448 kbps

Раздача от:
Общее
Полное имя : Nika.2010.DVDRip_[New-team]_by_AVP_Studio.avi
Формат : AVI
Формат/Информация : Audio Video Interleave
Размер файла : 1,46 Гбайт
Продолжительность : 1 ч. 28 м.
Общий поток : 2360 Кбит/сек
Программа кодирования : VirtualDubMod 1.5.10.3 | www.virtualdub-fr.org || (build 2550/release)
Библиотека кодирования : VirtualDubMod build 2550/release

Видео
Идентификатор : 0
Формат : MPEG-4 Visual
Профиль формата : Advanced Simple@L5
Параметр BVOP формата : 1
Параметр QPel формата : Нет
Параметр GMC формата : Без точки перехода
Параметр матрицы формата : Выборочная
Идентификатор кодека : XVID
Идентификатор кодека/Подсказка : XviD
Продолжительность : 1 ч. 28 м.
Битрейт : 1902 Кбит/сек
Ширина : 704 пикселя
Высота : 384 пикселя
Соотношение сторон : 1,85:1
Частота кадров : 25,000 кадров/сек
Цветовое пространство : YUV
Субдискретизация насыщенности : 4:2:0
Битовая глубина : 8 бит
Тип развёртки : Прогрессивная
Метод сжатия : С потерями
Бит/(Пиксели*Кадры) : 0.281
Размер потока : 1,18 Гбайт (81%)
Библиотека кодирования : XviD 73

Аудио
Идентификатор : 1
Формат : AC-3
Формат/Информация : Audio Coding 3
Расширение режима : CM (complete main)
Параметр Endianness формата : Big
Идентификатор кодека : 2000
Продолжительность : 1 ч. 28 м.
Вид битрейта : Постоянный
Битрейт : 448 Кбит/сек
Каналы : 6 каналов
Расположение каналов : Front: L C R, Side: L R, LFE
Частота : 48,0 КГц
Метод сжатия : С потерями
Размер потока : 284 Мбайт (19%)
Выравнивание : Разделение по промежуткам
Продолжительность промежутка : 40 мс. (1,00 видеокадр)
Время предзагрузки промежутка : 500 мс
pb.wtf



Скачать Ника через торрент http://s010.radikal.ru/i311/1512/53/bd84ce1bd6a1.png Скачать фильм Ника через торрент бесплантно в хорошем качестве Описание:Юную украинку Нику похищают люди криминального авторитета Франко и запирают в пустой квартире. Через две недели ее должны продать ... 10 10 1
Торрент: Зарегистрирован [2015-12-02 10:25] · скачан: 33 раз
Статус: √ проверено
Размер: 1.46 GB
Как cкачать? Как скачать Ника через торрент | qTorrent

% Раздел Тема Автор DL S | L
Мультфильмы (48-60 fps) [ 4.31 GB ] Побег из курятника / Chicken Run [2000 мультфильм BDRip 720p - [] 60FPS Tiberiumsun69 Скачать
1 | 0
Зарубежные сериалы [ 5.19 GB ] Олимп / Olympus / Сезон: 1 / Серии 1-13 из 13 [2015 BDRip] MVO [BaibaKo] GEKADOL Скачать
1 | 0
Зарубежные сериалы [ 31.51 GB ] Олимп / Olympus / Сезон: 1 / Серии 1-13 из 13 [2015 BDRip-720р] MVO [BaibaKo] GEKADOL Скачать
1 | 0
Стрела [ 19.57 GB ] Стрела / Arrow / Сезон: 4 / Серии 1-22 из 23 [2015 WEB-DLRip-AVC] MVO [NewStudio] GEKADOL Скачать
1 | 0
Зарубежные сериалы [ 2.93 GB ] Конец детства / Childhood's End / Сезон: 1 / Серии: 1-3 из 3 [2015 научная WEB-DLRip] [MVO] NewStudio killermax2013 Скачать
1 | 0
Зарубежные сериалы [ 7.97 GB ] Конец детства / Childhood's End / Сезон: 1 / Серии: 1-3 из 3 [2015 научная WEB-DL 720p] MVO NewStudio diletant Скачать
1 | 0
Зарубежные сериалы [ 3.22 GB ] Конец детства / Childhood's End / Сезон: 1 / Серии: 1-6 из 6 [2015 научная WEB-DLRip] MVO BaibaKo diletant Скачать
1 | 0

28-11-2019 20:33  

Отключить всю рекламу на сайте

    Дорогой пользователь! Огромная просьба, поблагодарите релизера, оцените раздачу и оставьте свои комментарий, если Вы скачали Ника через торрент бесплатно! Внесите свою лепту в развитие PiratBit!
    Комментировать посты могут только пользователи прошедшие не сложную регистрацию
    Показать сообщения:    

    Ника через торрент
    Скачать бесплатно Ника
    Ника скачать торрент
    Ника смотреть онлайн
    Cкачать фильм Ника бесплатно
    Ника скачать торрент в хорошем качестве
    Ника смотреть онлайн бесплатно в хорошем качестве


    Вы не можете начинать темы
    Вы не можете отвечать на сообщения
    Вы не можете редактировать свои сообщения
    Вы не можете удалять свои сообщения
    Вы не можете голосовать в опросах
    Вы не можете прикреплять файлы к сообщениям
    Вы можете скачивать файлы