Ссылка на приватное зеркало всего за 1$. Внимание количество ограничено!!!

OK

1+1

iTunes

мы

OK

1

WEB-DLRip

Джокер

Пифагор

Ведьмак / The Witcher сериал

iTunes

ПШазам

ОК

Оно 2

iTunes

30
pack

Вам бонус

ВАЖНО

!!Акция!!

Alien_RageХит недели

RePack

Resident Evil 21

ИГРА 18+

pack

RePack

jed

RePack

fifa19

RePack

Assassins Creed: Odyssey

RePack

NEED FOR SPEED™ PAYBACK

4 сезон

9 сезон

Бесстыжие 9 сезон

Все сериалы

все сериалы на PB.wtf

RePack

FAR CRY 5
  

Ника / Nika (Арнон Задок / Arnon Zadok) [2010, Израиль, драма, DVDRip-AVC от AVP Studio] pb.wtf

Ника через торрент pb.wtf

Размер: 1.46 GB | Добавлен: 4 года 1 мес. назад | Торрент скачан:51 раз
Скачать  

02-12-2015 10:28 Ника Скачать торрент  

Ника
Nika

Страна: Израиль
Производство: Rabinovich Film Fund Cinema Project, Tel-Aviv Doco

Жанр: драма
Год выпуска: 2010
Продолжительность: 01:28:36

Перевод: Не требуется
Cубтитры: нет
Оригинальная аудиодорожка: русский

Режиссер: Арнон Задок / Arnon Zadok

В ролях:
Ева Дора Эзельштейн, Валерий Каплан, Олег Левин, Мария Ованов, Элизабет Петровский, Игорь Шамуйлов, Алексей Штукин, Женя Вассерман...

Описание:
Юную украинку Нику похищают люди криминального авторитета Франко и запирают в пустой квартире. Через две недели ее должны продать в сексуальное рабство. Иван счастливо женат и растит маленькую дочку, но у него есть секрет — он только что проиграл все свои сбережения в карты. Теперь он должен денег тому самому Франко, и тот предлагает ему отработать долг. Сказав семье, что получил работу на фабрике, Иван отправляется охранять квартиру, в которой Ника дожидается своей незавидной участи.

Источник: DVD5 R5
Качество видео: DVDRip-AVC
Формат видео: MKV

Видео: 712->1054x570 (1,85:1), 25 fps, H264 ~ 1907 kbps avg, 0.281 bit/pixel
Аудио: 48 kHz, Dolby Digital AC3 5.1, 448 kbps

Раздача от:
Общее
Полное имя : Nika.2010.DVDRip-AVC_[New-team]_by_AVP_Studio.mkv
Формат : Matroska
Версия формата : Version 2
Размер файла : 1,46 Гбайт
Продолжительность : 1 ч. 28 м.
Общий поток : 2356 Кбит/сек
Дата кодирования : UTC 2015-12-01 12:36:25
Программа кодирования : mkvmerge v6.1.0 ('Old Devil') built on Mar 4 2013 09:10:42
Библиотека кодирования : libebml v1.3.0 + libmatroska v1.4.0

Видео
Идентификатор : 1
Формат : AVC
Формат/Информация : Advanced Video Codec
Профиль формата : High@L4.1
Параметр CABAC формата : Да
Параметр ReFrames формата : 10 кадров
Идентификатор кодека : V_MPEG4/ISO/AVC
Продолжительность : 1 ч. 28 м.
Битрейт : 1907 Кбит/сек
Ширина : 712 пикселей
Высота : 570 пикселей
Соотношение сторон : 1,85:1
Режим частоты кадров : Постоянный
Частота кадров : 25,000 кадров/сек
Цветовое пространство : YUV
Субдискретизация насыщенности : 4:2:0
Битовая глубина : 8 бит
Тип развёртки : Прогрессивная
Бит/(Пиксели*Кадры) : 0.188
Размер потока : 1,15 Гбайт (79%)
Библиотека кодирования : x264 core 148 r2597 e86f3a1
Настройки программы : cabac=1 / ref=10 / deblock=1:-2:-1 / analyse=0x3:0x113 / me=umh / subme=10 / psy=1 / psy_rd=1.00:0.00 / mixed_ref=1 / me_range=32 / chroma_me=1 / trellis=2 / 8x8dct=1 / cqm=0 / deadzone=21,11 / fast_pskip=1 / chroma_qp_offset=-2 / threads=6 / lookahead_threads=1 / sliced_threads=0 / nr=0 / decimate=0 / interlaced=0 / bluray_compat=0 / constrained_intra=0 / bframes=8 / b_pyramid=2 / b_adapt=2 / b_bias=0 / direct=3 / weightb=1 / open_gop=0 / weightp=2 / keyint=250 / keyint_min=25 / scenecut=40 / intra_refresh=0 / rc=2pass / mbtree=0 / bitrate=1907 / ratetol=1.0 / qcomp=0.60 / qpmin=0 / qpmax=69 / qpstep=4 / cplxblur=20.0 / qblur=0.5 / ip_ratio=1.40 / pb_ratio=1.30 / aq=1:1.00
Default : Да
Forced : Нет

Аудио
Идентификатор : 2
Формат : AC-3
Формат/Информация : Audio Coding 3
Расширение режима : CM (complete main)
Параметр Endianness формата : Big
Идентификатор кодека : A_AC3
Продолжительность : 1 ч. 28 м.
Вид битрейта : Постоянный
Битрейт : 448 Кбит/сек
Каналы : 6 каналов
Расположение каналов : Front: L C R, Side: L R, LFE
Частота : 48,0 КГц
Метод сжатия : С потерями
Размер потока : 284 Мбайт (19%)
Default : Да
Forced : Нет
pb.wtf



Скачать Ника через торрент http://s010.radikal.ru/i311/1512/53/bd84ce1bd6a1.png Скачать фильм Ника через торрент бесплантно в хорошем качестве Описание:Юную украинку Нику похищают люди криминального авторитета Франко и запирают в пустой квартире. Через две недели ее должны продать ... 10 10 1
Торрент: Зарегистрирован [2015-12-02 10:28] · скачан: 51 раз
Статус: √ проверено
Размер: 1.46 GB
Как cкачать? Как скачать Ника через торрент | qTorrent

% Раздел Тема Автор DL S | L
Мультфильмы (48-60 fps) [ 4.31 GB ] Побег из курятника / Chicken Run [2000 мультфильм BDRip 720p - [] 60FPS Tiberiumsun69 Скачать
1 | 6
Зарубежные сериалы [ 5.19 GB ] Олимп / Olympus / Сезон: 1 / Серии 1-13 из 13 [2015 BDRip] MVO [BaibaKo] GEKADOL Скачать
1 | 0
Зарубежные сериалы [ 31.51 GB ] Олимп / Olympus / Сезон: 1 / Серии 1-13 из 13 [2015 BDRip-720р] MVO [BaibaKo] GEKADOL Скачать
1 | 0
Стрела [ 19.57 GB ] Стрела / Arrow / Сезон: 4 / Серии 1-22 из 23 [2015 WEB-DLRip-AVC] MVO [NewStudio] GEKADOL Скачать
1 | 0
Зарубежные сериалы [ 2.93 GB ] Конец детства / Childhood's End / Сезон: 1 / Серии: 1-3 из 3 [2015 научная WEB-DLRip] [MVO] NewStudio killermax2013 Скачать
1 | 0
Зарубежные сериалы [ 7.97 GB ] Конец детства / Childhood's End / Сезон: 1 / Серии: 1-3 из 3 [2015 научная WEB-DL 720p] MVO NewStudio diletant Скачать
1 | 0
Зарубежные сериалы [ 3.22 GB ] Конец детства / Childhood's End / Сезон: 1 / Серии: 1-6 из 6 [2015 научная WEB-DLRip] MVO BaibaKo diletant Скачать
2 | 0


Последний раз редактировалось: AVP Studio (2015-12-02 15:40), всего редактировалось 1 раз

28-11-2019 20:33  

Отключить всю рекламу на сайте

02-12-2015 13:55 Ника Скачать торрент  

Ссылка на Кинопоиск некорректная. Совершенно другой фильм.pb.wtf



    Дорогой пользователь! Огромная просьба, поблагодарите релизера, оцените раздачу и оставьте свои комментарий, если Вы скачали Ника через торрент бесплатно! Внесите свою лепту в развитие PiratBit!
    Комментировать посты могут только пользователи прошедшие не сложную регистрацию
    Показать сообщения:    

    Ника через торрент
    Скачать бесплатно Ника
    Ника скачать торрент
    Ника смотреть онлайн
    Cкачать фильм Ника бесплатно
    Ника скачать торрент в хорошем качестве
    Ника смотреть онлайн бесплатно в хорошем качестве


    Вы не можете начинать темы
    Вы не можете отвечать на сообщения
    Вы не можете редактировать свои сообщения
    Вы не можете удалять свои сообщения
    Вы не можете голосовать в опросах
    Вы не можете прикреплять файлы к сообщениям
    Вы можете скачивать файлы