Ссылка на приватное зеркало всего за 1$. Внимание количество ограничено!!!

iTunes

iTunes

iTunes

1

iTunes

iTunes

iTunes

iTunes

iTunes

30
pack

Новость дня

ВАЖНО

!!Акция!!

Alien_RageХит недели

RePack

Resident Evil 21

ИГРА 18+

pack

RePack

jed

!!Акция!!

Alien_Rage

RePack

fifa19

RePack

Assassins Creed: Odyssey

RePack

NEED FOR SPEED™ PAYBACK

4 сезон

9 сезон

Бесстыжие 9 сезон

Все сериалы

все сериалы на PB.wtf

RePack

FAR CRY 5
  

Дороги (Андрей Гаврилов) [2015, драма, криминал, WEBRip, [Русский] pb.wtf

Дороги через торрент pb.wtf

Размер: 1.03 GB | Добавлен: 4 года 5 мес. назад | Торрент скачан:1484 раза
Скачать  

02-12-2015 14:05 Дороги Скачать торрент  


Дороги
««Не важно на чем ты ездишь... главное как ты двигаешься и кому с тобой по пути!»»

ИНФОРМАЦИЯ:
Год выпуска:2015
Страна: Россия
Жанр: драма, криминал
Продолжительность: 01:34:48
Перевод: Не требуется [Русский]
Режиссер: Андрей Гаврилов

В Ролях:


Иван Шаповалов, Владимир Заболотский, Константин Авдеев, Сергей Гореликов, Владимир Сычев, Марина Федункив, Максим Коновалов, Артем Карокозян, Артем Калайджян

Описание:
Фильм о дорогах, как об автомобильных так и о жизненных, а еще о друзьях, которые друг другу дороги! Руся, Саня и Макс дружат с детства, но силой обстоятельств их дороги расходятся. Через несколько лет они встречаются и решают зарабатывать не честным путем. Почувствовав вкус денег, Руся пристрастился к наркотикам, Саня как и мечтал открыл спорт зал, а Макс увлечен своей девушкой и планирует создать семью. Однако дорога за легкими деньгами их затягивает и приводит совсем не туда куда они мечтали.


ТЕХ.ДАННЫЕ:
Качество: WEBRip
Формат: AVI
Видео: XviD, 704x320 (2.2:1), 1287 kbps, 25 fps, 0,229 bpp
Аудио: AC3 / 2.0 / 48 kHz / 192 kbps / 16 bit


General
Complete name : D:\Торенты\Dorogi.2015.O.WEBRip.MegaPeer.avi
Format : AVI
Format/Info : Audio Video Interleave
File size : 1.03 GiB
Duration : 1h 34mn
Overall bit rate : 1 550 Kbps
Writing application : VirtualDubMod 1.5.10.3 | www.virtualdub-fr.org || (build 2550/release)
Writing library : VirtualDubMod build 2550/release

Video
ID : 0
Format : MPEG-4 Visual
Format profile : Advanced Simple@L5
Format settings, BVOP : 1
Format settings, QPel : No
Format settings, GMC : No warppoints
Format settings, Matrix : Custom
Codec ID : XVID
Codec ID/Hint : XviD
Duration : 1h 34mn
Bit rate : 1 288 Kbps
Width : 704 pixels
Height : 320 pixels
Display aspect ratio : 2.2:1
Frame rate : 25.000 fps
Color space : YUV
Chroma subsampling : 4:2:0
Bit depth : 8 bits
Scan type : Progressive
Compression mode : Lossy
Bits/(Pixel*Frame) : 0.229
Stream size : 873 MiB (83%)
Writing library : XviD 73

Audio
ID : 1
Format : AC-3
Format/Info : Audio Coding 3
Mode extension : CM (complete main)
Codec ID : 2000
Duration : 1h 34mn
Bit rate mode : Constant
Bit rate : 192 Kbps
Channel(s) : 2 channels
Channel positions : Front: L R
Sampling rate : 48.0 KHz
Bit depth : 16 bits
Compression mode : Lossy
Stream size : 130 MiB (12%)
Alignment : Split accross interleaves
Скриншоты:

© Оформление by .::Ворон::.
pb.wtf



Скачать Дороги через торрент http://pic.kartinco.top/images/6/ordi9.jpg Скачать фильм Дороги через торрент бесплантно в хорошем качестве Описание: Фильм о дорогах, как об автомобильных так и о жизненных, а еще о друзьях, которые друг другу дороги! Руся, Саня и Макс дружат с ... 9.2 10 18
Торрент: Зарегистрирован [2015-12-02 14:05] · скачан: 1 484 раз
Статус: T временная
Размер: 1.03 GB
Как cкачать? Как скачать Дороги через торрент | qTorrent

% Раздел Тема Автор DL S | L
Фильмы до 2000 г. [ 1.41 GB ] Дорога на Арлингтон / Arlington Road [1998 ... DVDRip] MoNaZ Скачать
1 | 0
Другие симуляторы [ 7.89 GB ] Trainz Simulator 12 / Твоя железная дорога 2012. Подарочное издание 2012 [лицензия RU/EN Simulator] Anonymous Скачать
1 | 0
Фильмы [HD 720p, 1080p] (Хороший звук DUB, MVO) [ 4.67 GB ] Дорога / The Road [2009 BDRip ] m9sо Скачать
1 | 0
Программы android [ 4.08 GB ] [Навигация] Navikey - Семь дорог 1.0 RC2 + Все карты[Android 2.2 RUS] Konondoyl Скачать
1 | 0
Фильмы 2009 [ 1.37 GB ] Дорога / The Road [2009 HDRip лицензия] SD Скачать
1 | 0
Наши сериалы [ 6.88 GB ] Дорога на остров Пасхи / 1 сезон / Серии: 16 из 16 / 2012 / SATRip [ ] -=Cherry=- Скачать
1 | 0
Фильмы 2010 [ 2.05 GB ] Дорогой Джон / Dear John [2010 военный HDRip] coc900 Скачать
1 | 0

28-11-2019 20:33  

Отключить всю рекламу на сайте

02-12-2015 16:44 Дороги Скачать торрент  

Фильм о дружбе.Супер!!!!pb.wtf



02-12-2015 17:08 Дороги Скачать торрент  

Качаю любой фильм с переводом Андрея Гаврилова ). Это имя и привлекло внимание к раздаче. Значит есть еще и какой то режиссер Гаврилов, или это тот самый Гаврилов ? Надо будет погуглить ). Ну, в любом случае - качаю ))), спасибо !pb.wtf



03-12-2015 10:28 Дороги Скачать торрент  

Хороший фильм +5pb.wtf



04-12-2015 06:53 Дороги Скачать торрент  

почему то многих актеров из заявленных в списке в фильме попросту нет!pb.wtf



04-12-2015 13:01 Дороги Скачать торрент  

это первая версия фильма вроде или не полная! а так с о вчерашнего дня тток премьера началасьpb.wtf



06-12-2015 16:46 Дороги Скачать торрент  

убогое зрелищеpb.wtf



13-12-2015 18:45 Дороги Скачать торрент  

Хороший фильмpb.wtf



27-12-2015 07:51 Дороги Скачать торрент  

Фильм хороший, но как говорили выше, не хватает заявленных актеров, и моментов с фильма.....pb.wtf



30-03-2016 22:33 Дороги Скачать торрент  

Сюжет хороший но нет актерского мастерства...pb.wtf



    Дорогой пользователь! Огромная просьба, поблагодарите релизера, оцените раздачу и оставьте свои комментарий, если Вы скачали Дороги через торрент бесплатно! Внесите свою лепту в развитие PiratBit!
    Комментировать посты могут только пользователи прошедшие не сложную регистрацию
    Показать сообщения:    

    Дороги через торрент
    Скачать бесплатно Дороги
    Дороги скачать торрент
    Дороги смотреть онлайн
    Cкачать фильм Дороги бесплатно
    Дороги скачать торрент в хорошем качестве
    Дороги смотреть онлайн бесплатно в хорошем качестве


    Вы не можете начинать темы
    Вы не можете отвечать на сообщения
    Вы не можете редактировать свои сообщения
    Вы не можете удалять свои сообщения
    Вы не можете голосовать в опросах
    Вы не можете прикреплять файлы к сообщениям
    Вы можете скачивать файлы