Ссылка на приватное зеркало нашего сайта всего за 1$. Внимание количество ограничено!!!

2 сезон

iTunes

1 сезон

1

2 сезон

2 сезон

iTunes

1 сезон

RePack

30

Новинка

ВАЖНО

ИГРА 18+

pack

RePack

MK11
pack

Забери бонус

RePack

jed

!!Акция!!

Alien_Rage

RePack

fifa19

RePack

Assassins Creed: Odyssey

RePack

NEED FOR SPEED™ PAYBACK

4 сезон

9 сезон

Бесстыжие 9 сезон

Все сериалы

все сериалы на PB.wtf

RePack

FAR CRY 5
  

В Некотором Царстве / Однажды в сказке / Once Upon a Time / Сезон: 5 / Серии: 1-11 из 22 (Грег Биман, Марк Майлод, Дин Уайт) [2015, фэнтези, приключения, WEB-DLRip] DVO (Кубик в Кубе) + Original pb.wtf

В Некотором Царстве через торрент pb.wtf

Размер: 9.27 GB | Добавлен: 4 года 11 мес. назад | Торрент скачан:170 раз
Скачать  

02-12-2015 18:22 В Некотором Царстве Скачать торрент  



✦ В Некотором Царстве / Однажды в сказке / Once Upon a Time ✦

Информация о фильме:

✦ Название: Однажды в сказке
✦ Оригинальное название: Once Upon a Time
✦ Год выхода: 2015
✦ Страна: США
✦ Жанр: Фэнтези, приключения
✦ Продолжительность: ~ 00:43:00 серия
✦ Перевод: Профессиональный (двухголосый закадровый)
- Кубик в Кубе




✦ Режиссер: Грег Биман, Марк Майлод, Дин Уайт




✦ В ролях: Дженнифер Моррисон, Джиннифер Гудвин, Лана Парийя, Джошуа Даллас, Джаред Гилмор, Роберт Карлайл, Рафаэль Сбардж, Меган Ори, Эйон Бэйли, Беверли Эллиотт





Описание фильма:

Новые умопомрачительные приключения Эммы Свон, Белоснежки, Прекрасного Принца, Злой Королевы, Крюка, а также других представителей Сказочного Мира. Они привыкают к тому, что ныне Эмма – Темная и принимаются искать Мерлина. Это путешествие перенесет наших героев из Зачарованного Леса в Камелот и преподнесет массу сюрпризов, среди которых знакомство с храброй и упрямой шотландской принцессой по имени Мерида.




✦ Релиз:

✦ Озвучка: Кубик в Кубе
✦ Работа со звуком, рип: ЛП









Информация о файле:

✦ Качество: WEB-DLRip
✦ Формат: AVI
✦ Видео: 720x400 (1.80:1), 23.976 fps, XviD MPEG-4 ~1998 kbps avg, 0.29 bit/pixel
✦ Аудио Rus: 48 kHz, AC3 Dolby Digital, 3/2 (L,C,R,l,r) + LFE ch, ~384.00 kbps avg
✦ Аудио Eng: 48 kHz, AC3 Dolby Digital, 3/2 (L,C,R,l,r) + LFE ch, ~384.00 kbps avg
✦ Субтитры: отсутствуют





Код:

E:\Сериалы\Once Upon A Time Season 5 CasStudio.TV\Once.Upon.A.Time.s05e01.rus.eng.CasStudio.TV.avi
   General
      Complete name : E:\Сериалы\Once Upon A Time Season 5 CasStudio.TV\Once.Upon.A.Time.s05e01.rus.eng.CasStudio.TV.avi
      Format : AVI
      Format/Info : Audio Video Interleave
      File size : 857 MiB
      Duration : 43mn 4s
      Overall bit rate : 2 781 Kbps
      Writing application : VirtualDubMod 1.5.10.2 (build 2540/release)
      Writing library : VirtualDubMod build 2540/release
   Video #0
      ID : 0
      Format : MPEG-4 Visual
      Format profile : Advanced Simple@L5
      Format settings, BVOP : 1
      Format settings, QPel : No
      Format settings, GMC : No warppoints
      Format settings, Matrix : Default (MPEG)
      Codec ID : XVID
      Codec ID/Hint : XviD
      Duration : 43mn 4s
      Bit rate : 1 999 Kbps
      Width : 720 pixels
      Height : 400 pixels
      Display aspect ratio : 16:9
      Frame rate : 23.976 fps
      Color space : YUV
      Chroma subsampling : 4:2:0
      Bit depth : 8 bits
      Scan type : Progressive
      Compression mode : Lossy
      Bits/(Pixel*Frame) : 0.290
      Stream size : 616 MiB (72%)
      Writing library : XviD 73
   Audio #1
      ID : 1
      Format : AC-3
      Format/Info : Audio Coding 3
      Mode extension : CM (complete main)
      Format settings, Endianness : Big
      Codec ID : 2000
      Duration : 43mn 4s
      Bit rate mode : Constant
      Bit rate : 384 Kbps
      Channel(s) : 6 channels
      Channel positions : Front: L C R, Side: L R, LFE
      Sampling rate : 48.0 KHz
      Bit depth : 16 bits
      Compression mode : Lossy
      Stream size : 118 MiB (14%)
      Alignment : Split accross interleaves
      Interleave, duration : 42 ms (1.00 video frame)
      Interleave, preload duration : 500 ms
   Audio #2
      ID : 2
      Format : AC-3
      Format/Info : Audio Coding 3
      Mode extension : CM (complete main)
      Format settings, Endianness : Big
      Codec ID : 2000
      Duration : 43mn 4s
      Bit rate mode : Constant
      Bit rate : 384 Kbps
      Channel(s) : 6 channels
      Channel positions : Front: L C R, Side: L R, LFE
      Sampling rate : 48.0 KHz
      Bit depth : 16 bits
      Compression mode : Lossy
      Stream size : 118 MiB (14%)
      Alignment : Split accross interleaves
      Interleave, duration : 42 ms (1.00 video frame)
      Interleave, preload duration : 500 ms



Когда раздача ведётся путём добавления новых серий, при каждом добавлении создётся новый торрент. Чтобы начать докачку новой серии, пользователям необходимо сделать следующее:
(1) остановить скачивание,
(2) удалить старый торрент у себя из клиента (старые серии удалять не надо),
(3) скачать новый торрент и запустить его у себя в клиенте вместо старого, при этом указать клиенту путь в старую папку, куда и должно происходить скачивание новых серий.
Ваш клиент при этом должен произвести хеширование (проверку) старой папки (если не производит сам - помогите ему сделать это), и будет докачивать только те серии, которых у вас ещё нет. Старые серии при этом не удаляются, а продолжают раздаваться!
Eсли вы уже удалили старые серии, то предотвратить повторную закачку старых серий можно, отжав галочку в соответсвующих местах при запуске нового торрента. По возможности, желательно не удалять старые серии как можно дольше, чтобы релизёр не столько продолжал раздавать старые серии, а смог сконцентрироваться на новых.
pb.wtf



Скачать В Некотором Царстве через торрент http://i69.fastpic.ru/big/2015/1001/c3/5ee1cef908f38081c76259c72cb158c3.jpg Скачать фильм В Некотором Царстве через торрент бесплантно в хорошем качестве Описание фильма: Новые умопомрачительные приключения Эммы Свон, Белоснежки, Прекрасного Принца, Злой Королевы, Крюка, а также других ... 10 10 6
Торрент: Зарегистрирован [2015-12-17 18:08] · скачан: 170 раз
Статус: √ проверено
Размер: 9.27 GB
Как cкачать? Как скачать В Некотором Царстве через торрент | qTorrent



Последний раз редактировалось: P.N.L. (2015-12-17 18:08), всего редактировалось 3 раз(а)

28-11-2019 20:33  

Отключить всю рекламу на сайте

02-12-2015 18:41 В Некотором Царстве Скачать торрент  

Как сериал???pb.wtf



02-12-2015 19:15 В Некотором Царстве Скачать торрент  

bober100 писал(а):

Как сериал???

На любителя. Если Вам нравятся сказки, то сериал стоит смотреть. Лично мне он нравится. Но начинать смотреть лучше с 1 сезона.pb.wtf



03-12-2015 03:29 В Некотором Царстве Скачать торрент  

спасибо подруга ...pb.wtf



05-12-2015 16:50 В Некотором Царстве Скачать торрент  

Добавлена 10 серияpb.wtf



05-12-2015 18:05 В Некотором Царстве Скачать торрент  

Весьма неплохой сериал.
Фентези, герои всех сказок вообщем можно смотреть и желательно с 1 сезона.
жду полный сезон и забираю все сразу.pb.wtf



17-12-2015 18:09 В Некотором Царстве Скачать торрент  

Добавлена 11 серияpb.wtf



02-02-2016 13:54 В Некотором Царстве Скачать торрент  

P.N.L. писал(а):

Добавлена 11 серия

когда ждать 12ую?!pb.wtf



02-02-2016 19:17 В Некотором Царстве Скачать торрент  

balamut26russ писал(а):

когда ждать 12ую?!

6 марта 2016pb.wtf



05-02-2016 10:04 В Некотором Царстве Скачать торрент  

P.N.L. писал(а):

balamut26russ писал(а):

когда ждать 12ую?!

6 марта 2016

Уф!!! долго(( но спасибо за ответ! pb.wtf



14-11-2016 09:10 В Некотором Царстве Скачать торрент  

Ну что где продолжение ?pb.wtf



    Дорогой пользователь! Огромная просьба, поблагодарите релизера, оцените раздачу и оставьте свои комментарий, если Вы скачали В Некотором Царстве через торрент бесплатно! Внесите свою лепту в развитие PiratBit!
    Комментировать посты могут только пользователи прошедшие не сложную регистрацию
    Показать сообщения:    

    В Некотором Царстве через торрент
    Скачать бесплатно В Некотором Царстве
    В Некотором Царстве скачать торрент
    В Некотором Царстве смотреть онлайн
    Cкачать фильм В Некотором Царстве бесплатно
    В Некотором Царстве скачать торрент в хорошем качестве
    В Некотором Царстве смотреть онлайн бесплатно в хорошем качестве


    Вы не можете начинать темы
    Вы не можете отвечать на сообщения
    Вы не можете редактировать свои сообщения
    Вы не можете удалять свои сообщения
    Вы не можете голосовать в опросах
    Вы не можете прикреплять файлы к сообщениям
    Вы можете скачивать файлы