Ссылка на приватное зеркало всего за 1$. Внимание количество ограничено!!!

iTunes

iTunes

iTunes

1

iTunes

iTunes

iTunes

iTunes

iTunes

30
pack

$ от Little Big

ВАЖНО

!!Акция!!

Alien_RageХит недели

RePack

Resident Evil 21

ИГРА 18+

pack

RePack

jed

!!Акция!!

Alien_Rage

RePack

fifa19

RePack

Assassins Creed: Odyssey

RePack

NEED FOR SPEED™ PAYBACK

4 сезон

9 сезон

Бесстыжие 9 сезон

Все сериалы

все сериалы на PB.wtf

RePack

FAR CRY 5
  

Такси / Taxi (Джафар Панахи) [2015, драма, комедия, WEB-DL 1080p, Профессиональный многоголосый [Лицензия / iTunes] pb.wtf

Такси через торрент pb.wtf

Размер: 3.1 GB | Добавлен: 4 года 7 мес. назад | Торрент скачан:204 раза
Скачать  

02-12-2015 20:10 Такси Скачать торрент  


Такси / Taxi


ИНФОРМАЦИЯ:
Год выпуска:2015
Страна: Иран
Жанр: драма, комедия
Продолжительность: 01:21:09
Перевод: Профессиональный многоголосый [Лицензия / iTunes]
Режиссер: Джафар Панахи

В Ролях:
Джафар Панахи

Описание:
Желтое такси колесит по ярким и красочным улицам Тегерана. В такси садятся разнообразные пассажиры, каждый из которых искренне выражает свои взгляды во время беседы с водителем. А водителем является не кто иной, как сам режиссер фильма Джафар Панахи.

  • Мировая премьера:6 февраля 2015

    ТЕХ.ДАННЫЕ:
    Качество: WEB-DL 1080p
    Формат: MKV
    Видео: AVC, 1920x1080 (16:9), 4981 kbps, 24 fps, 0,100 bpp
    Аудио: русский / AC3 / 5.1 / 48 kHz / 384 kbps / 16 bit ||
    Навигация по главам: есть


    General
    Unique ID : 235405745867275123004889261836439604685 (0xB1197F5C7722FFD2A4A17E8E40BB4DCD)
    Complete name : D:\Торенты\T4xi.2015.P.WEB-DL.1080p.mkv
    Format : Matroska
    Format version : Version 4 / Version 2
    File size : 3.10 GiB
    Duration : 1h 21mn
    Overall bit rate : 5 474 Kbps
    Encoded date : UTC 2015-12-02 17:49:06
    Writing application : mkvmerge v8.3.0 ('Over the Horizon') 64bit
    Writing library : libebml v1.3.1 + libmatroska v1.4.2

    Video
    ID : 1
    Format : AVC
    Format/Info : Advanced Video Codec
    Format profile : High@L4.0
    Format settings, CABAC : Yes
    Format settings, ReFrames : 4 frames
    Codec ID : V_MPEG4/ISO/AVC
    Duration : 1h 21mn
    Bit rate : 4 981 Kbps
    Width : 1 920 pixels
    Height : 1 080 pixels
    Display aspect ratio : 16:9
    Frame rate : 24.000 fps
    Color space : YUV
    Chroma subsampling : 4:2:0
    Bit depth : 8 bits
    Scan type : Progressive
    Bits/(Pixel*Frame) : 0.100
    Stream size : 2.82 GiB (91%)
    Language : English
    Default : Yes
    Forced : No
    Color primaries : BT.709-5, BT.1361, IEC 61966-2-4, SMPTE RP177
    Transfer characteristics : BT.709-5, BT.1361
    Matrix coefficients : BT.709-5, BT.1361, IEC 61966-2-4 709, SMPTE RP177

    Audio
    ID : 2
    Format : AC-3
    Format/Info : Audio Coding 3
    Mode extension : CM (complete main)
    Codec ID : A_AC3
    Duration : 1h 21mn
    Bit rate mode : Constant
    Bit rate : 384 Kbps
    Channel(s) : 6 channels
    Channel positions : Front: L C R, Side: L R, LFE
    Sampling rate : 48.0 KHz
    Bit depth : 16 bits
    Compression mode : Lossy
    Stream size : 223 MiB (7%)
    Language : Russian
    Default : Yes
    Forced : No

    Menu
    00:00:00.000 : en:1
    00:12:30.000 : en:2
    00:27:33.000 : en:3
    00:37:37.000 : en:4
    00:54:16.000 : en:5
    01:07:19.000 : en:6
    01:20:34.000 : en:7
    Скриншоты:

    © Оформление by .::Ворон::.
    pb.wtf



  • Скачать Такси через торрент http://pic.kartinco.top/images/6/ordi9.jpg Скачать фильм Такси через торрент бесплантно в хорошем качестве Описание: Желтое такси колесит по ярким и красочным улицам Тегерана. В такси садятся разнообразные пассажиры, каждый из которых искренне ... 10 10 5
    Торрент: Зарегистрирован [2015-12-02 20:10] · скачан: 204 раз
    Статус: √ проверено
    Размер: 3.1 GB
    Как cкачать? Как скачать Такси через торрент | qTorrent

    % Раздел Тема Автор DL S | L
    Сборники и Сиквелы (48-60 fps) [ 12.94 GB ] Такси: Квадрология / Taxi: Quadrilogy [1998-2007 BDRip-AVC 60fps DUB MVO DVO] от R.G. HD-Films Tiberiumsun69 Скачать
    13 | 5
    Классика зарубежного кино [ 3.85 GB ] Такси прицеп и коррида / Taxi Roulotte et Corrida [1958 BDRip 720p by msltel] 2 x MVO msltel Скачать
    1 | 0
    Классика зарубежного кино [ 9.5 GB ] Такси прицеп и коррида / Taxi Roulotte et Corrida [1958 BDRip 1080p by msltel] 2 x MVO msltel Скачать
    1 | 0
    Фильмы 2018 [DVDrip, WEB-DLRip, HDrip] (DUB, MVO) [ 1.42 GB ] Такси 5 / Taxi 5 [2018 BDRip] bober100 Скачать
    1 | 0
    Фильмы 2018 [DVDrip, WEB-DLRip, HDrip] (DUB, MVO) [ 746 MB ] Такси 5 / Taxi 5 [2018 BDRip] bober100 Скачать
    1 | 0

    28-11-2019 20:33  

    Отключить всю рекламу на сайте

    02-12-2015 20:27 Такси Скачать торрент  

    Почему-то,у этого ф-ма большой рейтинг?pb.wtf



    12-12-2015 15:03 Такси Скачать торрент  

    bober100 писал(а):

    Почему-то,у этого ф-ма большой рейтинг?

    Под страхом смертной казни заставляли писать положительные отзывыpb.wtf



      Дорогой пользователь! Огромная просьба, поблагодарите релизера, оцените раздачу и оставьте свои комментарий, если Вы скачали Такси через торрент бесплатно! Внесите свою лепту в развитие PiratBit!
      Комментировать посты могут только пользователи прошедшие не сложную регистрацию
      Показать сообщения:    

      Такси через торрент
      Скачать бесплатно Такси
      Такси скачать торрент
      Такси смотреть онлайн
      Cкачать фильм Такси бесплатно
      Такси скачать торрент в хорошем качестве
      Такси смотреть онлайн бесплатно в хорошем качестве


      Вы не можете начинать темы
      Вы не можете отвечать на сообщения
      Вы не можете редактировать свои сообщения
      Вы не можете удалять свои сообщения
      Вы не можете голосовать в опросах
      Вы не можете прикреплять файлы к сообщениям
      Вы можете скачивать файлы