Ссылка на приватное зеркало нашего сайта всего за 1$. Внимание количество ограничено!!!

2 сезон

iTunes

iTunes

1

iTunes

iTunes

iTunes

WEBRip

iTunes

30
pack

Вам бонус

ВАЖНО

!!Акция!!

Alien_RageХит недели

RePack

Horizon Zero Dawn

ИГРА 18+

pack

RePack

jed

!!Акция!!

Alien_Rage

RePack

fifa19

RePack

Assassins Creed: Odyssey

RePack

NEED FOR SPEED™ PAYBACK

4 сезон

9 сезон

Бесстыжие 9 сезон

Все сериалы

все сериалы на PB.wtf

RePack

FAR CRY 5
  

Агенты А.Н.К.Л. / The Man from U.N.C.L.E. (Гай Ричи / Guy Ritchie) [2015, боевик, комедия, приключения, BDRip-AVC от potroks] DUB Лицензия pb.wtf

Агенты А.Н.К.Л. через торрент pb.wtf

Размер: 1.46 GB | Добавлен: 4 года 9 мес. назад | Торрент скачан:298 раз
Скачать  

03-12-2015 08:43 Агенты А.Н.К.Л. Скачать торрент  

Агенты А.Н.К.Л. / The Man from U.N.C.L.E.
«Герои высшего класса»
Год выпуска: 2015
Страна: США, Великобритания / Warner Bros. Pictures...
Жанр: боевик, комедия, приключения
Продолжительность: 01:56:29
Перевод: Дубляж [BD CEE]
Субтитры: русские (Forced), русские (iTunes), русские (A.Matveev)
Навигация по главам: есть
Режиссер: Гай Ричи / Guy Ritchie
В ролях:

Генри Кавилл (Solo), Арми Хаммер (Illya), Алисия Викандер (Gaby), Элизабет Дебики (Victoria), Хью Грант (Waverly), Лука Кальвани (Alexander), Сильвестр Грот (Uncle Rudi), Джаред Харрис (Sanders), Кристиан Беркель (Udo), Миша Кузнецов (Oleg), Гай Уильямс (Captain Smith), Марианна Ди Мартино (Desk Clerk)
Описание: Наполеон Соло - агент ЦРУ, на счету которого огромное количество успешно проведенных операций. Он считается одним из лучших секретных агентов во всем мире, и с ним может сравниться только один человек - самый молодой и перспективный агент КГБ, Илья Курякин. Их противостояние переросло в настоящую войну, в которой никто не собирается уступать. Однако обстоятельства складываются так, что непримиримые враги вынуждены стать напарниками. Это происходит после того как спецслужбы двух стран обнаруживают международную преступную организацию, которой удалось создать ядерную бомбу...

Качество: BDRip-AVC
Формат: MKV
Видео кодек: AVC
Аудио кодек: AC3
Видео: 984x410 (2.40:1), 1411 kbps, 23,976 fps, 0.146 bit/pixel
Аудио: AC3 / 5.1 / 48 kHz / 384 kbps / 16 bit

Релиз группы:
Автор рипа: potroks

Код:

General
Unique ID                   : 225853359081485174687901359543471331047 (0xA9E9C654ACF5D29C991848AF5EA056E7)
Complete name               : Agenty.A.N.K.L.2015.RUS.BDRip.x264.-HELLYWOOD.mkv
Format                      : Matroska
Format version              : Version 4 / Version 2
File size                   : 1.46 GiB
Duration                    : 1h 56mn
Overall bit rate            : 1 797 Kbps
Movie name                  : The Man from U.N.C.L.E. (2015) - HELLYWOOD
Encoded date                : UTC 2010-02-22 21:41:31
Writing application         : mkvmerge v5.8.0 ('No Sleep / Pillow') built on Sep 30 2012 10:57:14
Writing library             : libebml v1.3.0 + libmatroska v1.4.0

Video
ID                          : 1
Format                      : AVC
Format/Info                 : Advanced Video Codec
Format profile              : High@L4.1
Format settings, CABAC      : Yes
Format settings, ReFrames   : 12 frames
Codec ID                    : V_MPEG4/ISO/AVC
Duration                    : 1h 56mn
Bit rate                    : 1 411 Kbps
Width                       : 984 pixels
Height                      : 410 pixels
Display aspect ratio        : 2.40:1
Frame rate mode             : Constant
Frame rate                  : 23.976 fps
Color space                 : YUV
Chroma subsampling          : 4:2:0
Bit depth                   : 8 bits
Scan type                   : Progressive
Bits/(Pixel*Frame)          : 0.146
Stream size                 : 1.12 GiB (77%)
Title                       : potroks
Writing library             : x264 core 146 r2538 121396c
Encoding settings           : cabac=1 / ref=12 / deblock=1:-2:-2 / analyse=0x3:0x113 / me=umh / subme=11 / psy=1 / psy_rd=1.03:0.06 / mixed_ref=1 / me_range=48 / chroma_me=1 / trellis=2 / 8x8dct=1 / cqm=0 / deadzone=21,11 / fast_pskip=0 / chroma_qp_offset=-3 / threads=9 / lookahead_threads=2 / sliced_threads=0 / nr=0 / decimate=0 / interlaced=0 / bluray_compat=0 / constrained_intra=0 / bframes=13 / b_pyramid=2 / b_adapt=2 / b_bias=0 / direct=3 / weightb=1 / open_gop=0 / weightp=2 / keyint=250 / keyint_min=23 / scenecut=40 / intra_refresh=0 / rc_lookahead=60 / rc=2pass / mbtree=0 / bitrate=1411 / ratetol=1.0 / qcomp=0.70 / qpmin=0 / qpmax=69 / qpstep=4 / cplxblur=20.0 / qblur=0.5 / vbv_maxrate=14000 / vbv_bufsize=14000 / nal_hrd=none / filler=0 / ip_ratio=1.35 / pb_ratio=1.25 / aq=1:0.80
Language                    : English
Default                     : Yes
Forced                      : No

Audio
ID                          : 2
Format                      : AC-3
Format/Info                 : Audio Coding 3
Mode extension              : CM (complete main)
Format settings, Endianness : Big
Codec ID                    : A_AC3
Duration                    : 1h 56mn
Bit rate mode               : Constant
Bit rate                    : 384 Kbps
Channel(s)                  : 6 channels
Channel positions           : Front: L C R, Side: L R, LFE
Sampling rate               : 48.0 KHz
Compression mode            : Lossy
Stream size                 : 320 MiB (21%)
Title                       : Dub | DD 5.1 @ 384 kbps - iTunes
Language                    : Russian
Default                     : Yes
Forced                      : No

Text #1
ID                          : 3
Format                      : UTF-8
Codec ID                    : S_TEXT/UTF8
Codec ID/Info               : UTF-8 Plain Text
Title                       : Forced
Language                    : Russian
Default                     : Yes
Forced                      : No

Text #2
ID                          : 4
Format                      : UTF-8
Codec ID                    : S_TEXT/UTF8
Codec ID/Info               : UTF-8 Plain Text
Title                       : iTunes
Language                    : Russian
Default                     : No
Forced                      : No

Text #3
ID                          : 5
Format                      : UTF-8
Codec ID                    : S_TEXT/UTF8
Codec ID/Info               : UTF-8 Plain Text
Title                       : A.Matveev
Language                    : Russian
Default                     : No
Forced                      : No

Menu
00:00:00.000                : en:(01)00:00:00:000
00:15:19.083                : en:(02)00:15:19:083
00:23:11.681                : en:(03)00:23:11:681
00:32:09.301                : en:(04)00:32:09:301
00:40:36.056                : en:(05)00:40:36:056
00:49:07.568                : en:(06)00:49:07:568
00:59:23.559                : en:(07)00:59:23:559
01:08:52.837                : en:(08)01:08:52:837
01:20:28.113                : en:(09)01:20:28:113
01:29:47.671                : en:(10)01:29:47:671
01:43:21.360                : en:(11)01:43:21:360
01:49:23.430                : en:(12)01:49:23:430

pb.wtf



Скачать Агенты А.Н.К.Л. через торрент http://i73.fastpic.ru/big/2015/1203/4a/a0e4cab4af900820c522503420e8c14a.png Скачать фильм Агенты А.Н.К.Л. через торрент бесплантно в хорошем качестве Описание: Наполеон Соло - агент ЦРУ, на счету которого огромное количество успешно проведенных операций. Он считается одним из лучших ... 10 10 5
Торрент: Зарегистрирован [2015-12-03 08:43] · скачан: 298 раз
Статус: √ проверено
Размер: 1.46 GB
Как cкачать? Как скачать Агенты А.Н.К.Л. через торрент | qTorrent

% Раздел Тема Автор DL S | L
Ultra HD (UHD: 2K, 4K, 8K) — видео сверхвысокой чёткости [ 21.28 GB ] Агенты А.Н.К.Л. / The Man from U.N.C.L.E. [2015 UHD WEBRip 2160p] [HDR] 4xAVO+DUB [] bober100 Скачать
2 | 0
Фильмы [HD 720p, 1080p] (Хороший звук DUB, MVO) [ 6.96 GB ] Агенты А.Н.К.Л. / The Man from U.N.C.L.E. [2015 BDRip 1080p HEVC ] 2xAVO+DUB [] bober100 Скачать
1 | 0
Фильмы 2015 [DVDrip, WEB-DLRip, HDrip] [ 2.18 GB ] Агенты А.Н.К.Л. / The Man from U.N.C.L.E. [2015 BDRip-AVC от sokol_ok] DUB sokol_ok Скачать
3 | 0
Фильмы 2015 [DVDrip, WEB-DLRip, HDrip] [ 1.46 GB ] Агенты А.Н.К.Л. / The Man from U.N.C.L.E. [2015 BDRip] DUB Twi7ter Скачать
2 | 0
Фильмы [HD 720p, 1080p] (Хороший звук DUB, MVO) [ 5.76 GB ] Агенты А.Н.К.Л. / The Man from U.N.C.L.E. [2015 BDRip 720p] DUB potroks Скачать
2 | 0
Фильмы 2015 [DVDrip, WEB-DLRip, HDrip] [ 2.18 GB ] Агенты А.Н.К.Л. / The Man from U.N.C.L.E. [2015 BDRip-AVC] DUB potroks Скачать
1 | 0
Фильмы 2015 [DVDrip, WEB-DLRip, HDrip] [ 1.46 GB ] Агенты А.Н.К.Л. / The Man from U.N.C.L.E. [2015 BDRip-AVC от sokol_ok] DUB sokol_ok Скачать
2 | 0

28-11-2019 20:33  

Отключить всю рекламу на сайте

    Дорогой пользователь! Огромная просьба, поблагодарите релизера, оцените раздачу и оставьте свои комментарий, если Вы скачали Агенты А.Н.К.Л. через торрент бесплатно! Внесите свою лепту в развитие PiratBit!
    Комментировать посты могут только пользователи прошедшие не сложную регистрацию
    Показать сообщения:    

    Агенты А.Н.К.Л. через торрент
    Скачать бесплатно Агенты А.Н.К.Л.
    Агенты А.Н.К.Л. скачать торрент
    Агенты А.Н.К.Л. смотреть онлайн
    Cкачать фильм Агенты А.Н.К.Л. бесплатно
    Агенты А.Н.К.Л. скачать торрент в хорошем качестве
    Агенты А.Н.К.Л. смотреть онлайн бесплатно в хорошем качестве


    Вы не можете начинать темы
    Вы не можете отвечать на сообщения
    Вы не можете редактировать свои сообщения
    Вы не можете удалять свои сообщения
    Вы не можете голосовать в опросах
    Вы не можете прикреплять файлы к сообщениям
    Вы можете скачивать файлы