Ссылка на приватное зеркало нашего сайта всего за 1$. Внимание количество ограничено!!!

2 сезон

iTunes

1 сезон

1

2 сезон

2 сезон

iTunes

1 сезон

RePack

30

Ultimate

ВАЖНО

ИГРА 18+

pack

RePack

MK11
pack

Забери бонус

RePack

jed

!!Акция!!

Alien_Rage

RePack

fifa19

RePack

Assassins Creed: Odyssey

RePack

NEED FOR SPEED™ PAYBACK

4 сезон

9 сезон

Бесстыжие 9 сезон

Все сериалы

все сериалы на PB.wtf

RePack

FAR CRY 5
  

Святые и Чужие / Saints & Strangers (сезон 1, серии 1-2 из 2) (2015) HDTVRip (Пол А.Эдвардс) [2015 г., Драма, HDTVRip] MVO [ NewStudio] pb.wtf

Святые и Чужие через торрент pb.wtf

Размер: 2.73 GB | Добавлен: 4 года 11 мес. назад | Торрент скачан:139 раз
Скачать  

03-12-2015 11:35 Святые и Чужие Скачать торрент  

Святые и Чужие / Saints & Strangers
Год выпуска: 2015
Страна: США, National Geographic
Жанр: Драма
Продолжительность: 2 x ~ 01:36:00
Перевод: Профессиональный многоголосый NewStudio

Режиссер: Пол А.Эдвардс
Продюссер: Cет Фишер,Эрик Овермиер,Иоанна Вассилиадис Уиллис
Сценарий: Сет Фишер,Эрик Овермиер

Бюджет: $11 000 000
Премьера в мире: 22 ноября 2015

В ролях: Кэмерон Мэтью,Мария Вос,Ник Борэйни,Хэйди Ботчер,Анна Кэмп

Описание: Исторический мини-сериал,который ведет хронику непростого плавания "Мейфлауэра",английского торгового судна,отправившегося в сентябре 1620 года к берегам Нового Света,и первого времени пребывания переселенцев в Америке.Сто два колониста-мужчины,женщины,дети-провели в пути почти три месяца,полных невзгод и испытаний,с постоянно изматывающими штормами,нехваткой продовольствия и теснотой и отсутствия элементарных удобств на корабле.Но когда их ноги ступили,наконец,на твердую землю,оказалось,что настоящие трудности только начинаются...История "Мейфлауэра"-это рассказ о сильных духом людях,отправившихся навстречу новой жизни.

Качество: HDTVRip
Формат: AVI
Видео кодек: XviD
Аудио кодек: MP3
Видео: 720x400(16:9), 1769 Кбит/сек, 23,976 fps
Аудио#1: Русский, MP3, 128 kb/s, 2 ch, 48.0 КГц
Аудио#2: Английский, MP3, 128 kb/s, 2 ch, 48.0 КГц
Общее
Полное имя : Cвятые и незнакомцы\Saints.&.Strangers.s01e01.HDTVRip.NewStudio.TV.avi
Формат : AVI
Формат/Информация : Audio Video Interleave
Размер файла : 1,37 Гбайт
Продолжительность : 1 ч. 36 м.
Общий поток : 2039 Кбит/сек
Программа кодирования : VirtualDubMod 1.5.10.2 (build 2540/release)
Библиотека кодирования : VirtualDubMod build 2540/release

Видео
Идентификатор : 0
Формат : MPEG-4 Visual
Профиль формата : Advanced Simple@L5
Параметр BVOP формата : 2
Параметр QPel формата : Нет
Параметр GMC формата : Без точки перехода
Параметр матрицы формата : Default (MPEG)
Идентификатор кодека : XVID
Идентификатор кодека/Подсказка : XviD
Продолжительность : 1 ч. 36 м.
Битрейт : 1769 Кбит/сек
Ширина : 720 пикселей
Высота : 400 пикселей
Соотношение сторон : 16:9
Частота кадров : 23,976 кадра/сек
Цветовое пространство : YUV
Субдискретизация насыщенности : 4:2:0
Битовая глубина : 8 бит
Тип развёртки : Прогрессивная
Метод сжатия : С потерями
Бит/(Пиксели*Кадры) : 0.256
Размер потока : 1,19 Гбайт (87%)
Библиотека кодирования : XviD 73

Аудио #1
Идентификатор : 1
Формат : MPEG Audio
Версия формата : Version 1
Профиль формата : Layer 3
Режим : Joint stereo
Расширение режима : MS Stereo
Идентификатор кодека : 55
Идентификатор кодека/Подсказка : MP3
Продолжительность : 1 ч. 36 м.
Вид битрейта : Постоянный
Битрейт : 128 Кбит/сек
Каналы : 2 канала
Частота : 48,0 КГц
Метод сжатия : С потерями
Размер потока : 87,9 Мбайт (6%)
Выравнивание : Соединение по промежуткам
Продолжительность промежутка : 42 мс. (1,00 видеокадр)
Время предзагрузки промежутка : 504 мс.

Аудио #2
Идентификатор : 2
Формат : MPEG Audio
Версия формата : Version 1
Профиль формата : Layer 3
Режим : Joint stereo
Идентификатор кодека : 55
Идентификатор кодека/Подсказка : MP3
Продолжительность : 1 ч. 36 м.
Вид битрейта : Постоянный
Битрейт : 128 Кбит/сек
Каналы : 2 канала
Частота : 48,0 КГц
Метод сжатия : С потерями
Размер потока : 87,9 Мбайт (6%)
Выравнивание : Соединение по промежуткам
Продолжительность промежутка : 42 мс. (1,00 видеокадр)
Время предзагрузки промежутка : 504 мс.
Библиотека кодирования : LAME3.99r
Настройки программы : -m j -V 4 -q 2 -lowpass 17 -b 128
скриншот  скриншот  скриншот  
pb.wtf



Скачать Святые и Чужие через торрент http://pic1.kartinco.top/images/10/kt337.jpg Скачать фильм Святые и Чужие через торрент бесплантно в хорошем качестве Описание: Исторический мини-сериал,который ведет хронику непростого плавания "Мейфлауэра",английского торгового судна,отправившегося в ... 9.8 10 6
Торрент: Зарегистрирован [2015-12-10 12:04] · скачан: 139 раз
Статус: √ проверено
Размер: 2.73 GB
Как cкачать? Как скачать Святые и Чужие через торрент | qTorrent



Последний раз редактировалось: sergey1979 (2015-12-10 12:04), всего редактировалось 17 раз(а)

28-11-2019 20:33  

Отключить всю рекламу на сайте

03-12-2015 15:24 Святые и Чужие Скачать торрент  

Сериал а длина 1ч36мин,необычно...pb.wtf



07-12-2015 15:55 Святые и Чужие Скачать торрент  

Пугает одно "Выход новой серии может быть перенесён из-за непредвиденных обстоятельств",интересно они на Новый Год отдохнуть на ГОА решили и немножко забили.... :pleasantry:
Класс pb.wtf



10-12-2015 14:44 Святые и Чужие Скачать торрент  

Посмотрят по рейтингу,от этого и будут плясать,делать им 2-ой сезон или нет.pb.wtf



    Дорогой пользователь! Огромная просьба, поблагодарите релизера, оцените раздачу и оставьте свои комментарий, если Вы скачали Святые и Чужие через торрент бесплатно! Внесите свою лепту в развитие PiratBit!
    Комментировать посты могут только пользователи прошедшие не сложную регистрацию
    Показать сообщения:    

    Святые и Чужие через торрент
    Скачать бесплатно Святые и Чужие
    Святые и Чужие скачать торрент
    Святые и Чужие смотреть онлайн
    Cкачать фильм Святые и Чужие бесплатно
    Святые и Чужие скачать торрент в хорошем качестве
    Святые и Чужие смотреть онлайн бесплатно в хорошем качестве


    Вы не можете начинать темы
    Вы не можете отвечать на сообщения
    Вы не можете редактировать свои сообщения
    Вы не можете удалять свои сообщения
    Вы не можете голосовать в опросах
    Вы не можете прикреплять файлы к сообщениям
    Вы можете скачивать файлы