Ссылка на приватное зеркало всего за 1$. Внимание количество ограничено!!!

OK

1+1

iTunes

мы

OK

1

WEB-DLRip

Джокер

Пифагор

Ведьмак / The Witcher сериал

Лицензия

ПШазам

ОК

Оно 2

iTunes

30
pack

Вам бонус

ВАЖНО

!!Акция!!

Alien_RageХит недели

RePack

Resident Evil 21

ИГРА 18+

pack

RePack

jed

!!Акция!!

Alien_Rage

RePack

fifa19

RePack

Assassins Creed: Odyssey

RePack

NEED FOR SPEED™ PAYBACK

4 сезон

9 сезон

Бесстыжие 9 сезон

Все сериалы

все сериалы на PB.wtf

RePack

FAR CRY 5
  

Ежегодное послание Президента РФ В. В. Путина Федеральному Собранию [2015 г., Политика, WEB-DL 720p, Оригинальный] pb.wtf

Ежегодное послание Президента РФ В. В. Путина Федеральному Собранию через торрент pb.wtf

Размер: 736 MB | Добавлен: 4 года 1 мес. назад | Торрент скачан:14 раз
Скачать  

03-12-2015 12:49 Ежегодное послание Президента РФ В. В. Путина Федеральному Собранию Скачать торрент  

Ежегодное послание Президента РФ В. В. Путина Федеральному Собранию
Год выпуска: 2015
Страна: Россия, RT
Жанр: Политика
Продолжительность: 01:05:38
Перевод: Оригинальный

Описание: Ежегодное послание Президента РФ В. В. Путина Федеральному Собранию.

Качество: WEB-DL 720p
Формат: MKV
Видео кодек: H.264
Аудио кодек: AC3
Видео: AVC, 1280x720 (16:9), 30.000 fps, 1 345 Kbps (0.049 bit/pixel)
Аудио#1: AC-3, 44.1 KHz, 2 ch, 192 Kbps, CBR
скриншот   скриншот   скриншот   скриншот  

General
Unique ID : 209877424603995082392522079124164211981 (0x9DE4EBF2897888B687A091075FD4750D)
Complete name : C:\Users\tut\Desktop\закаченое\Ежегодное послание Президента РФ В. В. Путина Федеральному Собранию.mkv
Format : Matroska
Format version : Version 4 / Version 2
File size : 736 MiB
Duration : 1h 5mn
Overall bit rate : 1 569 Kbps
Encoded date : UTC 2015-12-03 10:54:31
Writing application : mkvmerge v6.1.0 ('Old Devil') built on Mar 2 2013 14:32:37
Writing library : libebml v1.3.0 + libmatroska v1.4.0

Video
ID : 1
Format : AVC
Format/Info : Advanced Video Codec
Format profile : Main@L3.1
Format settings, CABAC : Yes
Format settings, ReFrames : 3 frames
Codec ID : V_MPEG4/ISO/AVC
Duration : 1h 5mn
Bit rate : 1 345 Kbps
Width : 1 280 pixels
Height : 720 pixels
Display aspect ratio : 16:9
Frame rate mode : Constant
Frame rate : 30.000 fps
Color space : YUV
Chroma subsampling : 4:2:0
Bit depth : 8 bits
Scan type : Progressive
Bits/(Pixel*Frame) : 0.049
Stream size : 632 MiB (86%)
Default : Yes
Forced : No

Audio
ID : 2
Format : AC-3
Format/Info : Audio Coding 3
Mode extension : CM (complete main)
Format settings, Endianness : Big
Codec ID : A_AC3
Duration : 1h 5mn
Bit rate mode : Constant
Bit rate : 192 Kbps
Channel(s) : 2 channels
Channel positions : Front: L R
Sampling rate : 44.1 KHz
Frame rate : 28.711 fps (1536 spf)
Compression mode : Lossy
Stream size : 90.1 MiB (12%)
Language : Russian
Default : Yes
Forced : No[/code]

pb.wtf



Скачать Ежегодное послание Президента РФ В. В. Путина Федеральному Собранию через торрент http://pic1.kartinco.top/images/10/nbts8.jpg Скачать фильм Ежегодное послание Президента РФ В. В. Путина Федеральному Собранию [2015 г., Политика, WEB-DL 720p, Оригинальный]через торрент бесплантно в хорошем качестве Описание: Ежегодное послание Президента РФ В. В. Путина Федеральному ... 7.8 10 4
Торрент: Зарегистрирован [2015-12-03 12:49] · скачан: 14 раз
Статус: √ проверено
Размер: 736 MB
Как cкачать? Как скачать Ежегодное послание Президента РФ В. В. Путина Федеральному Собранию через торрент | qTorrent

28-11-2019 20:33  

Отключить всю рекламу на сайте

03-12-2015 13:13 Ежегодное послание Президента РФ В. В. Путина Федеральному Собранию Скачать торрент  

sarcasticpb.wtf



    Дорогой пользователь! Огромная просьба, поблагодарите релизера, оцените раздачу и оставьте свои комментарий, если Вы скачали Ежегодное послание Президента РФ В. В. Путина Федеральному Собранию через торрент бесплатно! Внесите свою лепту в развитие PiratBit!
    Комментировать посты могут только пользователи прошедшие не сложную регистрацию
    Показать сообщения:    

    Ежегодное послание Президента РФ В. В. Путина Федеральному Собранию через торрент
    Скачать бесплатно Ежегодное послание Президента РФ В. В. Путина Федеральному Собранию
    Ежегодное послание Президента РФ В. В. Путина Федеральному Собранию скачать торрент
    Ежегодное послание Президента РФ В. В. Путина Федеральному Собранию смотреть онлайн
    Cкачать фильм Ежегодное послание Президента РФ В. В. Путина Федеральному Собранию бесплатно
    Ежегодное послание Президента РФ В. В. Путина Федеральному Собранию скачать торрент в хорошем качестве
    Ежегодное послание Президента РФ В. В. Путина Федеральному Собранию смотреть онлайн бесплатно в хорошем качестве


    Вы не можете начинать темы
    Вы не можете отвечать на сообщения
    Вы не можете редактировать свои сообщения
    Вы не можете удалять свои сообщения
    Вы не можете голосовать в опросах
    Вы не можете прикреплять файлы к сообщениям
    Вы можете скачивать файлы