2 сезон

iTunes

1 сезон

1

iTunes

iTunes

iTunes

1 сезон

RePack

30

ИГРА 18+

pack

ВАЖНО

!!Акция!!

Alien_RageХит недели

RePack

MK11
pack

Забери бонус

RePack

jed

!!Акция!!

Alien_Rage

RePack

fifa19

RePack

Assassins Creed: Odyssey

RePack

NEED FOR SPEED™ PAYBACK

4 сезон

9 сезон

Бесстыжие 9 сезон

Все сериалы

все сериалы на PB.wtf

RePack

FAR CRY 5
  

Иные / Серии: 1-16 из 16 (Александр Якимчук) [2015 г., Мистика, драма, SATRip] pb.wtf

Иные через торрент pb.wtf

Размер: 9.86 GB | Добавлен: 4 года 10 мес. назад | Торрент скачан:178 раз
Скачать  

03-12-2015 16:09 Иные Скачать торрент  

Иные
Год выпуска: 2015
Страна: Россия
Жанр: Мистика, драма
Продолжительность: ~ 00:45:00 серия

Режиссер: Александр Якимчук


Дата премьеры в России: 23 ноября 2015

В ролях: Павел Делонг, Анна Геллер, Олег Федоров (III), Юрий Ицков, Александр Большаков, Владимир Маслаков, Софья Шестакова, Евгений Шумейко, Михаил Касапов, Наталья Бурмистрова (II), Алексей Ведерников (II), Илья Стогов, Дмитрий Караневский, Вера Гудкова, Игорь Головин, Роман Якушов, Михаил Елисеев, Сергей Гамов, Мария Мекаева, Арсений Семёнов, Вадим Сквирский, Андрей Астраханцев, Людмила Бояринова, Игорь Павлов, Анна Кузнецова, Валерий Малюшин и тд...

Описание: По сюжету огромный астероид мчится к Земле, угрожая уничтожить всё живое. Однако в последний момент космический объект меняет свою траекторию. Когда спецслужбы прибывают на место его падения, они видят как светящаяся сфера медленно опускается на землю. Из сферы выходят… 444 человека. Мужчины, женщины, дети, одетые в костюмы разных эпох. Кто эти люди и что с ними произошло? Ответы на эти вопросы ищут главные герои – агенты спецслужбы, организованной в экстренном режиме. Их цель — расследовать причины необычного явления и защитить обычных людей от потенциальной опасности, которую могут нести «пришельцы».

Качество: SATRip
Формат: AVI
Видео кодек: XviD
Аудио кодек: MP3
Видео: 720x400 (16:9), 25 fps, 1800 kbps
Аудио#1: 48 kHz, 2 ch, 128 kbps
скриншот   скриншот   скриншот   скриншот  

General
Complete name : C:\Users\tut\Desktop\закаченое\Иные\01.avi
Format : AVI
Format/Info : Audio Video Interleave
File size : 582 MiB
Duration : 42mn 0s
Overall bit rate : 1 938 Kbps
Writing application : VirtualDubMod 1.5.10.3 | www.virtualdub-fr.org || (build 2550/release)
Writing library : VirtualDubMod build 2550/release

Video
ID : 0
Format : MPEG-4 Visual
Format profile : Advanced Simple@L5
Format settings, BVOP : 2
Format settings, QPel : No
Format settings, GMC : No warppoints
Format settings, Matrix : Default (H.263)
Codec ID : XVID
Codec ID/Hint : XviD
Duration : 42mn 0s
Bit rate : 1 800 Kbps
Width : 720 pixels
Height : 400 pixels
Display aspect ratio : 16:9
Frame rate : 25.000 fps
Color space : YUV
Chroma subsampling : 4:2:0
Bit depth : 8 bits
Scan type : Progressive
Compression mode : Lossy
Bits/(Pixel*Frame) : 0.250
Stream size : 541 MiB (93%)
Writing library : XviD 1.2.1 (UTC 2008-12-04)

Audio
ID : 1
Format : MPEG Audio
Format version : Version 1
Format profile : Layer 3
Mode : Joint stereo
Mode extension : MS Stereo
Codec ID : 55
Codec ID/Hint : MP3
Duration : 42mn 0s
Bit rate mode : Constant
Bit rate : 128 Kbps
Channel(s) : 2 channels
Sampling rate : 48.0 KHz
Compression mode : Lossy
Stream size : 38.5 MiB (7%)
Alignment : Aligned on interleaves
Interleave, duration : 40 ms (1.00 video frame)
Interleave, preload duratio : 504 ms
Writing library : LAME3.99r
Encoding settings : -m j -V 4 -q 9 -lowpass 17 -b 128[/code]


Сериал по оригинальному формату CBS "4400"
Релиз от: RiperAM

pb.wtf



Скачать Иные через торрент http://pic1.kartinco.top/images/10/oletg.jpg Скачать фильм Иные через торрент бесплантно в хорошем качестве Описание: По сюжету огромный астероид мчится к Земле, угрожая уничтожить всё живое. Однако в последний момент космический объект меняет ... 9.9 10 13
Info! Золотая раздача, скачанное не засчитывается.
Торрент: Зарегистрирован [2015-12-03 16:09] · скачан: 178 раз
Статус: √ проверено
Размер: 9.86 GB
Как cкачать? Как скачать Иные через торрент | qTorrent

% Раздел Тема Автор DL S | L
Зарубежные сериалы [ 60.22 GB ] Иная Жизнь / Другая жизнь / Another Life / Сезон: 1 / Серии: 1-10 из 10 [2019 UHD WEB-DL 2160p] MVO [Пифагор] bober100 Скачать
1 | 0
Наши сериалы [ 11.27 GB ] Иные / Сезон: 1 / Серии: 1-16 из 16 [2015 HDTVRip-AVC] bober100 Скачать
1 | 0
Наши сериалы [ 3.53 GB ] Иные / Серии: 1-6 из 16 [2015 мистическая с элементами WEBRip-AVC] aleksan55 Скачать
1 | 0
Мультсериалы [ 1.33 GB ] Белка и Стрелка: Озорная семейка / Сезон: 1 серии 1-16 из 54 [2011 анимация DVDRip] Res Скачать
1 | 0

28-11-2019 20:33  

Отключить всю рекламу на сайте

04-12-2015 20:44 Иные Скачать торрент  

Мне сериал очень понравился!!!! Но! Такое впечатление что его как будто не досняли или обрезали сильно...pb.wtf



06-12-2015 08:47 Иные Скачать торрент  

мдее, дешево снят (закос на 4400, ну тут сократили до 444))))) короче от мистики- только молнии, и загадочная музыка ))) дальше 2 серии не смог.
короче- эконом вариант!pb.wtf



08-12-2015 13:52 Иные Скачать торрент  

Бедный сериал но снято неплохо.pb.wtf



12-12-2015 19:30 Иные Скачать торрент  

серий точно 16, а то в инете пишут 17-18?pb.wtf



    Дорогой пользователь! Огромная просьба, поблагодарите релизера, оцените раздачу и оставьте свои комментарий, если Вы скачали Иные через торрент бесплатно! Внесите свою лепту в развитие PiratBit!
    Комментировать посты могут только пользователи прошедшие не сложную регистрацию
    Показать сообщения:    

    Иные через торрент
    Скачать бесплатно Иные
    Иные скачать торрент
    Иные смотреть онлайн
    Cкачать фильм Иные бесплатно
    Иные скачать торрент в хорошем качестве
    Иные смотреть онлайн бесплатно в хорошем качестве


    Вы не можете начинать темы
    Вы не можете отвечать на сообщения
    Вы не можете редактировать свои сообщения
    Вы не можете удалять свои сообщения
    Вы не можете голосовать в опросах
    Вы не можете прикреплять файлы к сообщениям
    Вы можете скачивать файлы