Ссылка на приватное зеркало всего за 1$. Внимание количество ограничено!!!

OK

1+1

iTunes

мы

OK

1

WEB-DLRip

Джокер

Пифагор

Ведьмак / The Witcher сериал

Лицензия

ПШазам

ОК

Оно 2

iTunes

30
pack

Вам бонус

ВАЖНО

!!Акция!!

Alien_RageХит недели

RePack

Resident Evil 21

ИГРА 18+

pack

RePack

jed

!!Акция!!

Alien_Rage

RePack

fifa19

RePack

Assassins Creed: Odyssey

RePack

NEED FOR SPEED™ PAYBACK

4 сезон

9 сезон

Бесстыжие 9 сезон

Все сериалы

все сериалы на PB.wtf

RePack

FAR CRY 5
  

Мираж / Délibáb (Саболч Хайду) [2014, драма, вестерн, DVDRip, Любительский одноголосый [Pashaup] pb.wtf

Мираж через торрент pb.wtf

Размер: 816 MB | Добавлен: 4 года 1 мес. назад | Торрент скачан:34 раза
Скачать  

03-12-2015 16:57 Мираж Скачать торрент  


Мираж / Délibáb


ИНФОРМАЦИЯ:
Год выпуска:2014
Страна: Венгрия, Словакия
Жанр: драма, вестерн
Продолжительность: 01:25:46
Перевод: Любительский одноголосый [Pashaup]
Режиссер: Саболч Хайду

В Ролях:


Исаак Де Банколе, Рэзван Василеску (Cisco), Оршойя Тёрёк-Ийеш (Anna), Драгош Букур (Kokas), Тамаш Полгар (Attila)

Описание:
Фильм рассказывает историю африканского футболиста, проживающего в маленьком венгерском городке. Он совершает преступление и вынужден скрываться в бегах. Он находит убежище на ферме, глубоко в венгерской глуши. Но вскоре он понимает, что эта ферма является современным лагерем рабов, где ему придется бороться за свою жизнь и свободу.

  • Мировая премьера:5 сентября 2014

    ТЕХ.ДАННЫЕ:
    Качество: DVDRip
    Формат: AVI
    Видео: XviD, 720x304 (2.35:1), 1141 kbps, 25 fps, 0,209 bpp
    Аудио: MP3 / 2.0 / 44 kHz / 128 kbps /


    General
    Complete name : D:\Торенты\Mirage.(2014).avi
    Format : AVI
    Format/Info : Audio Video Interleave
    File size : 816 MiB
    Duration : 1h 25mn
    Overall bit rate : 1 331 Kbps
    Writing application : VirtualDubMod 1.5.10.2 (build 2540/release)
    Writing library : VirtualDubMod build 2540/release

    Video
    ID : 0
    Format : MPEG-4 Visual
    Format profile : Advanced Simple@L5
    Format settings, BVOP : 2
    Format settings, QPel : No
    Format settings, GMC : No warppoints
    Format settings, Matrix : Default (H.263)
    Muxing mode : Packed bitstream
    Codec ID : XVID
    Codec ID/Hint : XviD
    Duration : 1h 25mn
    Bit rate : 1 141 Kbps
    Width : 720 pixels
    Height : 304 pixels
    Display aspect ratio : 2.35:1
    Frame rate : 25.000 fps
    Color space : YUV
    Chroma subsampling : 4:2:0
    Bit depth : 8 bits
    Scan type : Progressive
    Compression mode : Lossy
    Bits/(Pixel*Frame) : 0.209
    Stream size : 700 MiB (86%)
    Writing library : XviD 1.2.1 (UTC 2008-12-04)

    Audio
    ID : 1
    Format : MPEG Audio
    Format version : Version 1
    Format profile : Layer 3
    Mode : Joint stereo
    Mode extension : MS Stereo
    Codec ID : 55
    Codec ID/Hint : MP3
    Duration : 1h 25mn
    Bit rate mode : Constant
    Bit rate : 128 Kbps
    Channel(s) : 2 channels
    Sampling rate : 44.1 KHz
    Compression mode : Lossy
    Stream size : 78.5 MiB (10%)
    Alignment : Aligned on interleaves
    Скриншоты:

    © Оформление by .::Ворон::.
    pb.wtf



  • Скачать Мираж через торрент http://pic.kartinco.top/images/6/ordi9.jpg Скачать фильм Мираж через торрент бесплантно в хорошем качестве Описание: Фильм рассказывает историю африканского футболиста, проживающего в маленьком венгерском городке. Он совершает преступление и ... 10 10 2
    Торрент: Зарегистрирован [2015-12-03 16:57] · скачан: 34 раз
    Статус: T временная
    Размер: 816 MB
    Как cкачать? Как скачать Мираж через торрент | qTorrent

    28-11-2019 20:33  

    Отключить всю рекламу на сайте

      Дорогой пользователь! Огромная просьба, поблагодарите релизера, оцените раздачу и оставьте свои комментарий, если Вы скачали Мираж через торрент бесплатно! Внесите свою лепту в развитие PiratBit!
      Комментировать посты могут только пользователи прошедшие не сложную регистрацию
      Показать сообщения:    

      Мираж через торрент
      Скачать бесплатно Мираж
      Мираж скачать торрент
      Мираж смотреть онлайн
      Cкачать фильм Мираж бесплатно
      Мираж скачать торрент в хорошем качестве
      Мираж смотреть онлайн бесплатно в хорошем качестве


      Вы не можете начинать темы
      Вы не можете отвечать на сообщения
      Вы не можете редактировать свои сообщения
      Вы не можете удалять свои сообщения
      Вы не можете голосовать в опросах
      Вы не можете прикреплять файлы к сообщениям
      Вы можете скачивать файлы