Ссылка на приватное зеркало нашего сайта всего за 1$. Внимание количество ограничено!!!

2 сезон

iTunes

1 сезон

1

2 сезон

2 сезон

iTunes

1 сезон

RePack

30

Ultimate

ВАЖНО

ИГРА 18+

pack

RePack

MK11
pack

Забери бонус

RePack

jed

!!Акция!!

Alien_Rage

RePack

fifa19

RePack

Assassins Creed: Odyssey

RePack

NEED FOR SPEED™ PAYBACK

4 сезон

9 сезон

Бесстыжие 9 сезон

Все сериалы

все сериалы на PB.wtf

RePack

FAR CRY 5
  

Особое мнение / Minority Report / Сезон: 1 / Серии: 1-10 из 10 (Грег Биман, Сара Пиа Андерсон, Олатунде Осунсанми) [2015 г., фантастика, драма, WEB-DLRip] MVO NewStudio pb.wtf

Особое мнение через торрент pb.wtf

Размер: 5.28 GB | Добавлен: 4 года 11 мес. назад | Торрент скачан:73 раза
Скачать  

03-12-2015 17:28 Особое мнение Скачать торрент  

Особое мнение / Minority Report
Год выпуска: 2015
Страна: США
Жанр: фантастика, драма
Продолжительность cерии: ~00:45:00.

  • Перевод: Профессиональный (многоголосый закадровый) NewStudio ;
  • Русские субтитры: нет
  • Оригинальная аудиодорожка: английская

Режиссер: Грег Биман, Сара Пиа Андерсон, Олатунде Осунсанми
В ролях: Мэган Гуд, Уилмер Вальдеррама, Ник Зано, Лаура Риган, Старк Сэндс, Коннор Филдинг, Ли Цзюнь Ли, Дэниэл Лондон, Тина Лиффорд, Эндрю Стюарт-Джонс
Описание: Вашингтон. 2065 год. Экспериментальная программа профилактики преступлений (ППП), с помощью которой подозреваемых арестовывали еще до совершения ими убийств и правонарушений, упразднена. Один из трех Провидцев пытается вести «нормальную» человеческую жизнь, но он по-прежнему подвержен видениям будущего. Дэш встречает детектива Лару Вега, которую не отпускает прошлое. Она может помочь найти предназначение его дару.
Действие сериала происходит спустя 10 лет после событий одноимённого фильма с Томом Крузом.

  • Тип релиза: WEB-DLRip
  • Формат: AVI
  • Видео кодек: XviD | Аудио кодек: MP3
  • Видео: 720x400 (1.76:1), 25 fps, XviD ~1500 kbps avg, 0.19 bit/pixel
  • Аудио 1: Russian: 48 kHz, MPEG Layer 3, 2 ch, ~128.00 kbps avg
  • Аудио 2: English: 48 kHz, MPEG Layer 3, 2 ch, ~128.00 kbps avg
  • Субтитры: нет

Код:

Общее
Полное имя                               : C:\торрент\Minority.Report.s01.NewStudio\Minority.Report.s01e01.WEBDLRip.NewStudio.avi
Формат                                   : AVI
Формат/Информация                        : Audio Video Interleave
Размер файла                             : 542 Мбайт
Продолжительность                        : 45 м.
Общий поток                              : 1680 Кбит/сек
Программа кодирования                    : VirtualDubMod 1.5.10.2 (build 2540/release)
Библиотека кодирования                   : VirtualDubMod build 2540/release

Видео
Идентификатор                            : 0
Формат                                   : MPEG-4 Visual
Профиль формата                          : Advanced Simple@L5
Параметр BVOP формата                    : 2
Параметр QPel формата                    : Нет
Параметр GMC формата                     : Без точки перехода
Параметр матрицы формата                 : Default (MPEG)
Идентификатор кодека                     : XVID
Идентификатор кодека/Подсказка           : XviD
Продолжительность                        : 45 м.
Битрейт                                  : 1410 Кбит/сек
Ширина                                   : 720 пикселей
Высота                                   : 400 пикселей
Соотношение сторон                       : 16:9
Частота кадров                           : 23,976 кадра/сек
Цветовое пространство                    : YUV
Субдискретизация насыщенности            : 4:2:0
Битовая глубина                          : 8 бит
Тип развёртки                            : Прогрессивная
Метод сжатия                             : С потерями
Бит/(Пиксели*Кадры)                      : 0.204
Размер потока                            : 455 Мбайт (84%)
Библиотека кодирования                   : XviD 73

Аудио #1
Идентификатор                            : 1
Формат                                   : MPEG Audio
Версия формата                           : Version 1
Профиль формата                          : Layer 3
Режим                                    : Joint stereo
Расширение режима                        : MS Stereo
Идентификатор кодека                     : 55
Идентификатор кодека/Подсказка           : MP3
Продолжительность                        : 45 м.
Вид битрейта                             : Постоянный
Битрейт                                  : 128 Кбит/сек
Каналы                                   : 2 канала
Частота                                  : 48,0 КГц
Метод сжатия                             : С потерями
Размер потока                            : 41,3 Мбайт (8%)
Выравнивание                             : Соединение по промежуткам
Продолжительность промежутка             : 42  мс. (1,00 видеокадр)
Время предзагрузки промежутка            : 504  мс.

Аудио #2
Идентификатор                            : 2
Формат                                   : MPEG Audio
Версия формата                           : Version 1
Профиль формата                          : Layer 3
Режим                                    : Joint stereo
Расширение режима                        : MS Stereo
Идентификатор кодека                     : 55
Идентификатор кодека/Подсказка           : MP3
Продолжительность                        : 45 м.
Вид битрейта                             : Постоянный
Битрейт                                  : 128 Кбит/сек
Каналы                                   : 2 канала
Частота                                  : 48,0 КГц
Метод сжатия                             : С потерями
Размер потока                            : 41,3 Мбайт (8%)
Выравнивание                             : Соединение по промежуткам
Продолжительность промежутка             : 42  мс. (1,00 видеокадр)
Время предзагрузки промежутка            : 504  мс.
Библиотека кодирования                   : LAME3.99.5

pb.wtf



Скачать Особое мнение через торрент http://pic1.kartinco.top/images/10/8nh7z.jpg Скачать фильм Особое мнение через торрент бесплантно в хорошем качестве Описание: Вашингтон. 2065 год. Экспериментальная программа профилактики преступлений (ППП), с помощью которой подозреваемых арестовывали ... 9.9 10 8
Info! Золотая раздача, скачанное не засчитывается.
Торрент: Зарегистрирован [2015-12-03 17:28] · скачан: 73 раз
Статус: √ проверено
Размер: 5.28 GB
Как cкачать? Как скачать Особое мнение через торрент | qTorrent

28-11-2019 20:33  

Отключить всю рекламу на сайте

    Дорогой пользователь! Огромная просьба, поблагодарите релизера, оцените раздачу и оставьте свои комментарий, если Вы скачали Особое мнение через торрент бесплатно! Внесите свою лепту в развитие PiratBit!
    Комментировать посты могут только пользователи прошедшие не сложную регистрацию
    Показать сообщения:    

    Особое мнение через торрент
    Скачать бесплатно Особое мнение
    Особое мнение скачать торрент
    Особое мнение смотреть онлайн
    Cкачать фильм Особое мнение бесплатно
    Особое мнение скачать торрент в хорошем качестве
    Особое мнение смотреть онлайн бесплатно в хорошем качестве


    Вы не можете начинать темы
    Вы не можете отвечать на сообщения
    Вы не можете редактировать свои сообщения
    Вы не можете удалять свои сообщения
    Вы не можете голосовать в опросах
    Вы не можете прикреплять файлы к сообщениям
    Вы можете скачивать файлы