Ссылка на приватное зеркало всего за 1$. Внимание количество ограничено!!!

OK

1+1

iTunes

мы

OK

1

WEB-DLRip

Джокер

Пифагор

Ведьмак / The Witcher сериал

iTunes

ПШазам

ОК

Оно 2

iTunes

30
pack

Вам бонус

ВАЖНО

!!Акция!!

Alien_RageХит недели

RePack

Resident Evil 21

ИГРА 18+

pack

RePack

jed

RePack

fifa19

RePack

Assassins Creed: Odyssey

RePack

NEED FOR SPEED™ PAYBACK

4 сезон

9 сезон

Бесстыжие 9 сезон

Все сериалы

все сериалы на PB.wtf

RePack

FAR CRY 5
  

Выхода нет / No Escape (Джон Эрик Даудл / John Erick Dowdle) [2015, боевик, триллер, BDRip-AVC от potroks] Dub pb.wtf

Выхода нет через торрент pb.wtf

Раздают: 2 [ 13 KB/s ]
Размер: 2.18 GB | Добавлен: 4 года 1 мес. назад | Торрент скачан:861 раз
Скачать  

03-12-2015 19:04 Выхода нет Скачать торрент  

Выхода нет / No Escape
«Как далеко ты зайдёшь, чтобы защитить тех, кого любишь»
Год выпуска: 2015
Страна: США / Bold Films, Brothers Dowdle Productions, Living Films
Жанр: боевик, триллер
Продолжительность: 01:43:11
Перевод: Дубляж [IPTV]
Субтитры: русские, английские (Full), английские (SDH), английские (SDH-Colored)
Навигация по главам: есть
Режиссер: Джон Эрик Даудл / John Erick Dowdle
В ролях:

Оуэн Уилсон (Jack Dwyer), Лэйк Белл (Annie Dwyer), Пирс Броснан (Hammond), Стерлинг Джеринс (Lucy Dwyer), Thanawut Ketsaro (Samnang), Чатчаваи Камонсакпитак (Prak), Сахайак Бунсанакит (Kenny Rogers), Танапол Чуксрида (Krit), Нопханд Буньяй (Concierge), Канарпат Финтиянг (Bellhop), Джон Голдни (Jerry), Дуанг Мэйдорк (Old Man)
Описание: Американец вместе со своей семьей переезжает в Юго-Восточную Азию, но мирно пожить там не удается: вокруг разгорается жестокий военный переворот.

Качество: BDRip-AVC
Формат: MKV
Видео кодек: AVC
Аудио кодек: AC3
Видео: 1024x552 (1.855), 2129 kbps, 23,976 fps, 0,157 bit/pixel
Аудио №1: AC3 / 5.1 / 48 kHz / 448 kbps / 16 bit | RUS
Аудио №2: AC3 / 2.0 / 48 kHz / 448 kbps / 16 bit | ENG

Релиз группы:
Автор рипа: potroks

Код:

General
Unique ID                                : 181878624133273299901140690753783064895 (0x88D48C812F9EE3F083E1988B233FE93F)
Complete name                            : N:\Боевик\Vyxoda.Net.2015.DUAL.BDRip.x264.-HELLYWOOD.mkv
Format                                   : Matroska
Format version                           : Version 4 / Version 2
File size                                : 2.18 GiB
Duration                                 : 1h 43mn
Overall bit rate                         : 3 026 Kbps
Movie name                               : No Escape (2015) - HELLYWOOD
Encoded date                             : UTC 2010-02-22 21:41:31
Writing application                      : mkvmerge v5.8.0 ('No Sleep / Pillow') built on Sep 30 2012 10:57:14
Writing library                          : libebml v1.3.0 + libmatroska v1.4.0

Video
ID                                       : 1
Format                                   : AVC
Format/Info                              : Advanced Video Codec
Format profile                           : High@L4.1
Format settings, CABAC                   : Yes
Format settings, ReFrames                : 12 frames
Codec ID                                 : V_MPEG4/ISO/AVC
Duration                                 : 1h 43mn
Bit rate                                 : 2 129 Kbps
Width                                    : 1 024 pixels
Height                                   : 552 pixels
Display aspect ratio                     : 1.855
Frame rate                               : 23.976 fps
Color space                              : YUV
Chroma subsampling                       : 4:2:0
Bit depth                                : 8 bits
Scan type                                : Progressive
Bits/(Pixel*Frame)                       : 0.157
Stream size                              : 1.49 GiB (68%)
Title                                    : potroks
Writing library                          : x264 core 146 r2538 121396c
Encoding settings                        : cabac=1 / ref=12 / deblock=1:-2:-2 / analyse=0x3:0x113 / me=umh / subme=11 / psy=1 / psy_rd=1.00:0.05 / mixed_ref=1 / me_range=48 / chroma_me=1 / trellis=2 / 8x8dct=1 / cqm=0 / deadzone=21,11 / fast_pskip=0 / chroma_qp_offset=-3 / threads=9 / lookahead_threads=2 / sliced_threads=0 / nr=0 / decimate=0 / interlaced=0 / bluray_compat=0 / constrained_intra=0 / bframes=13 / b_pyramid=2 / b_adapt=2 / b_bias=0 / direct=3 / weightb=1 / open_gop=0 / weightp=2 / keyint=250 / keyint_min=23 / scenecut=40 / intra_refresh=0 / rc_lookahead=60 / rc=2pass / mbtree=0 / bitrate=2129 / ratetol=1.0 / qcomp=0.70 / qpmin=0 / qpmax=69 / qpstep=4 / cplxblur=20.0 / qblur=0.5 / vbv_maxrate=14000 / vbv_bufsize=14000 / nal_hrd=none / filler=0 / ip_ratio=1.35 / pb_ratio=1.25 / aq=1:0.80
Language                                 : English
Default                                  : Yes
Forced                                   : No

Audio #1
ID                                       : 2
Format                                   : AC-3
Format/Info                              : Audio Coding 3
Mode extension                           : CM (complete main)
Codec ID                                 : A_AC3
Duration                                 : 1h 43mn
Bit rate mode                            : Constant
Bit rate                                 : 448 Kbps
Channel(s)                               : 6 channels
Channel positions                        : Front: L C R, Side: L R, LFE
Sampling rate                            : 48.0 KHz
Bit depth                                : 16 bits
Compression mode                         : Lossy
Stream size                              : 331 MiB (15%)
Title                                    : Dub | DD 5.1 @ 448 kbps - IPTV
Language                                 : Russian
Default                                  : Yes
Forced                                   : No

Audio #2
ID                                       : 3
Format                                   : AC-3
Format/Info                              : Audio Coding 3
Format profile                           : Dolby Digital
Mode extension                           : CM (complete main)
Codec ID                                 : A_AC3
Duration                                 : 1h 43mn
Bit rate mode                            : Constant
Bit rate                                 : 448 Kbps
Channel(s)                               : 2 channels
Channel positions                        : Front: L R
Sampling rate                            : 48.0 KHz
Bit depth                                : 16 bits
Compression mode                         : Lossy
Stream size                              : 331 MiB (15%)
Title                                    : Original | DD 5.1 @ 448 kbps
Language                                 : English
Default                                  : No
Forced                                   : No

Text #1
ID                                       : 4
Format                                   : UTF-8
Codec ID                                 : S_TEXT/UTF8
Codec ID/Info                            : UTF-8 Plain Text
Language                                 : Russian
Default                                  : No
Forced                                   : No

Text #2
ID                                       : 5
Format                                   : UTF-8
Codec ID                                 : S_TEXT/UTF8
Codec ID/Info                            : UTF-8 Plain Text
Title                                    : Full
Language                                 : English
Default                                  : No
Forced                                   : No

Text #3
ID                                       : 6
Format                                   : UTF-8
Codec ID                                 : S_TEXT/UTF8
Codec ID/Info                            : UTF-8 Plain Text
Title                                    : SDH
Language                                 : English
Default                                  : No
Forced                                   : No

Text #4
ID                                       : 7
Format                                   : UTF-8
Codec ID                                 : S_TEXT/UTF8
Codec ID/Info                            : UTF-8 Plain Text
Title                                    : SDH-Colored
Language                                 : English
Default                                  : No
Forced                                   : No

Menu
00:00:00.000                             : en:(01)00:00:00:000
00:18:37.908                             : en:(02)00:18:37:908
00:29:49.954                             : en:(03)00:29:49:954
00:40:31.470                             : en:(04)00:40:31:470
00:56:15.830                             : en:(05)00:56:15:830
01:12:42.608                             : en:(06)01:12:42:608
01:22:40.538                             : en:(07)01:22:40:538
01:37:40.354                             : en:(08)01:37:40:354

pb.wtf



Скачать Выхода нет через торрент http://i73.fastpic.ru/big/2015/1203/4b/043c4681994578ab92bf6ee52a49584b.png Скачать фильм Выхода нет через торрент бесплантно в хорошем качестве Описание: Американец вместе со своей семьей переезжает в Юго-Восточную Азию, но мирно пожить там не удается: вокруг разгорается жестокий ... 10 10 17
Info! Золотая раздача, скачанное не засчитывается.
Торрент: Зарегистрирован [2015-12-03 19:04] · скачан: 861 раз
Статус: √ проверено
Размер: 2.18 GB
Как cкачать? Как скачать Выхода нет через торрент | qTorrent

% Раздел Тема Автор DL S | L
Фильмы 2015 [DVDrip, WEB-DLRip, HDrip] [ 1.35 GB ] Выхода нет / No Escape [2015 BDRip-AVC] Dub potroks Скачать
1 | 0
Фильмы 2015 [DVDrip, WEB-DLRip, HDrip] [ 2.13 GB ] Выхода нет / No Escape [2015 BDRip-AVC] Dub potroks Скачать
1 | 0
Фильмы 2015 [DVDrip, WEB-DLRip, HDrip] [ 1.4 GB ] Выхода нет / No Escape [2015 BDRip-AVC] Dub potroks Скачать
1 | 0

28-11-2019 20:33  

Отключить всю рекламу на сайте

12-12-2015 18:20 Выхода нет Скачать торрент  

Нормальный фильм, посмотреть можно. Интересно, вдруг случится такое, что из всех стран так американцев погонят:) в том числе из Европпы:) обидятся наверное:)pb.wtf



    Дорогой пользователь! Огромная просьба, поблагодарите релизера, оцените раздачу и оставьте свои комментарий, если Вы скачали Выхода нет через торрент бесплатно! Внесите свою лепту в развитие PiratBit!
    Комментировать посты могут только пользователи прошедшие не сложную регистрацию
    Показать сообщения:    

    Выхода нет через торрент
    Скачать бесплатно Выхода нет
    Выхода нет скачать торрент
    Выхода нет смотреть онлайн
    Cкачать фильм Выхода нет бесплатно
    Выхода нет скачать торрент в хорошем качестве
    Выхода нет смотреть онлайн бесплатно в хорошем качестве


    Вы не можете начинать темы
    Вы не можете отвечать на сообщения
    Вы не можете редактировать свои сообщения
    Вы не можете удалять свои сообщения
    Вы не можете голосовать в опросах
    Вы не можете прикреплять файлы к сообщениям
    Вы можете скачивать файлы