Ссылка на приватное зеркало нашего сайта всего за 1$. Внимание количество ограничено!!!

2 сезон

iTunes

1 сезон

1

2 сезон

2 сезон

iTunes

1 сезон

RePack

30

Ultimate

ВАЖНО

ИГРА 18+

pack

RePack

MK11
pack

Забери бонус

RePack

jed

!!Акция!!

Alien_Rage

RePack

fifa19

RePack

Assassins Creed: Odyssey

RePack

NEED FOR SPEED™ PAYBACK

4 сезон

9 сезон

Бесстыжие 9 сезон

Все сериалы

все сериалы на PB.wtf

RePack

FAR CRY 5
  

Тихий Дон. Съемки на фоне эпохи (Елена Якович) [2015 г., Документальный, SATRip, Оригинальный] pb.wtf

Тихий Дон. Съемки на фоне эпохи через торрент pb.wtf

Размер: 559 MB | Добавлен: 4 года 11 мес. назад | Торрент скачан:6 раз
Скачать  

03-12-2015 20:16 Тихий Дон. Съемки на фоне эпохи Скачать торрент  

Тихий Дон. Съемки на фоне эпохи
Год выпуска: 2015
Страна: Россия
Жанр: Документальный
Продолжительность: 00:39:51
Перевод: Оригинальный

Режиссер: Елена Якович

Описание:

О многосерийной экранизации романа "Тихий Дон" режиссером Сергеем Урсуляком. Об историческом контексте романа, о Верхнедонском восстании, которое стало его центром и во многом определило судьбы героев. О том, почему именно сегодня важно вновь обратиться к роману-эпопее Михаила Шолохова.

Качество: SATRip
Формат: AVI
Видео кодек: XviD
Аудио кодек: AC3
Видео: Xvid, 720x528, 1799 kbps, 25.00fps
Аудио#1: AC3, 2ch, 192 kbps, 48000Hz
скриншот   скриншот   скриншот   скриншот  

Общее
Полное имя : F:\видео\фильмы\Тихий Дон.Съемки на фоне эпохи.2015.SATRip.avi
Формат : AVI
Формат/Информация : Audio Video Interleave
Размер файла : 559 Мбайт
Продолжительность : 39 м.
Общий поток : 2000 Кбит/сек
Программа кодирования : VirtualDubMod 1.5.10.3 | www.virtualdub-fr.org || (build 2550/release)
Библиотека кодирования : VirtualDubMod build 2550/release

Видео
Идентификатор : 0
Формат : MPEG-4 Visual
Профиль формата : Advanced Simple@L5
Параметр BVOP формата : 1
Параметр QPel формата : Нет
Параметр GMC формата : Без точки перехода
Параметр матрицы формата : Выборочная
Идентификатор кодека : XVID
Идентификатор кодека/Подсказка : XviD
Продолжительность : 39 м.
Битрейт : 1799 Кбит/сек
Ширина : 720 пикселей
Высота : 528 пикселей
Соотношение сторон : 4:3
Частота кадров : 25,000 кадров/сек
Цветовое пространство : YUV
Субдискретизация насыщенности : 4:2:0
Битовая глубина : 8 бит
Тип развёртки : Прогрессивная
Метод сжатия : С потерями
Бит/(Пиксели*Кадры) : 0.189
Размер потока : 502 Мбайт (90%)
Библиотека кодирования : XviD 73

Аудио
Идентификатор : 1
Формат : AC-3
Формат/Информация : Audio Coding 3
Расширение режима : CM (complete main)
Параметр Endianness формата : Big
Идентификатор кодека : 2000
Продолжительность : 39 м.
Вид битрейта : Постоянный
Битрейт : 192 Кбит/сек
Каналы : 2 канала
Расположение каналов : Front: L R
Частота : 48,0 КГц
Метод сжатия : С потерями
Размер потока : 53,6 Мбайт (10%)
Выравнивание : Разделение по промежуткам
Продолжительность промежутка : 40 мс. (1,00 видеокадр)
Время предзагрузки промежутка : 500 мс.

pb.wtf



Скачать Тихий Дон. Съемки на фоне эпохи через торрент http://pic1.kartinco.top/images/10/7994m.jpg Скачать фильм Тихий Дон. Съемки на фоне эпохи через торрент бесплантно в хорошем качестве Описание: О многосерийной экранизации романа "Тихий Дон" режиссером Сергеем Урсуляком. Об историческом контексте романа, о Верхнедонском ... 10 10 3
Торрент: Зарегистрирован [2015-12-03 20:16] · скачан: 6 раз
Статус: √ проверено
Размер: 559 MB
Как cкачать? Как скачать Тихий Дон. Съемки на фоне эпохи через торрент | qTorrent

28-11-2019 20:33  

Отключить всю рекламу на сайте

    Дорогой пользователь! Огромная просьба, поблагодарите релизера, оцените раздачу и оставьте свои комментарий, если Вы скачали Тихий Дон. Съемки на фоне эпохи через торрент бесплатно! Внесите свою лепту в развитие PiratBit!
    Комментировать посты могут только пользователи прошедшие не сложную регистрацию
    Показать сообщения:    

    Тихий Дон. Съемки на фоне эпохи через торрент
    Скачать бесплатно Тихий Дон. Съемки на фоне эпохи
    Тихий Дон. Съемки на фоне эпохи скачать торрент
    Тихий Дон. Съемки на фоне эпохи смотреть онлайн
    Cкачать фильм Тихий Дон. Съемки на фоне эпохи бесплатно
    Тихий Дон. Съемки на фоне эпохи скачать торрент в хорошем качестве
    Тихий Дон. Съемки на фоне эпохи смотреть онлайн бесплатно в хорошем качестве


    Вы не можете начинать темы
    Вы не можете отвечать на сообщения
    Вы не можете редактировать свои сообщения
    Вы не можете удалять свои сообщения
    Вы не можете голосовать в опросах
    Вы не можете прикреплять файлы к сообщениям
    Вы можете скачивать файлы