Ссылка на приватное зеркало всего за 1$. Внимание количество ограничено!!!

iTunes

iTunes

iTunes

1

iTunes

iTunes

iTunes

iTunes

iTunes

30
pack

$ от Little Big

ВАЖНО

!!Акция!!

Alien_RageХит недели

RePack

Resident Evil 21

ИГРА 18+

pack

RePack

jed

!!Акция!!

Alien_Rage

RePack

fifa19

RePack

Assassins Creed: Odyssey

RePack

NEED FOR SPEED™ PAYBACK

4 сезон

9 сезон

Бесстыжие 9 сезон

Все сериалы

все сериалы на PB.wtf

RePack

FAR CRY 5
  

Шнайдер против Бакса / Schneider vs. Bax (Алекс ван Вармердам) (2015, Триллер, комедия, WEB-DL 1080p) iTunes DUB pb.wtf

Шнайдер против Бакса через торрент pb.wtf

Размер: 3.18 GB | Добавлен: 4 года 7 мес. назад | Торрент скачан:137 раз
Скачать  

04-12-2015 07:18 Шнайдер против Бакса Скачать торрент  

Название: Шнайдер против Бакса
Оригинальное название: Schneider vs. Bax
Год выпуска: 2015
Жанр: Триллер, комедия
Выпущено: Нидерланды, Czar, Graniet Film BV, Mollywood, Verenigde Arbeiders Radio Amateurs (VARA)
Продолжительность: 01:36:23
Перевод: Дублированный iTunes

Режиссер: Алекс ван Вармердам

В ролях: Том Де Виспеларе, Алекс ван Вармердам, Мария Краакман, Гене Бервутс, Аннет Мальэрб, Пьер Бокма, Анри Гарсен, Лоэс Хаверкорт, Ева ван де Вийдевен

Описание: Шнайдер — наемный убийца-профессионал. Даже в день своего рождения он обязан подчиниться заказчику, некоему Мертенсу, и ликвидировать Рамона Бакса, писателя, живущего в домишке на берегу озера, окруженного болотами. Киллеру приходится спешить — ведь дома его ждет праздничный обед в кругу семьи. Однако в этот день все идет наперекосяк. Непредвиденные обстоятельства то и дело возникают на пути Шнайдера, отодвигая исход операции. Он нервничает и не догадывается, что его жертва на самом деле тоже профессиональный гангстер, у которого он, Шнайдер, на мушке…

Сэмпл

Качество: WEB-DL 1080р
Формат: MKV
Видео: AVC, 1920x804 (2.35:1), 24.000 fps, 4 243 Kbps (0.115 bit/pixel)
Аудио: AC-3, 48.0 KHz, 6 ch, 384 Kbps, CBR (Russian)
Формат : Matroska
Версия формата : Version 2
Размер файла : 3,18 Гбайт
Продолжительность : 1 ч. 36 м.
Общий поток : 4721 Кбит/сек
Дата кодирования : UTC 2015-12-04 01:42:28
Программа кодирования : mkvmerge v8.3.0 ('Over the Horizon') 64bit
Библиотека кодирования : libebml v1.3.1 + libmatroska v1.4.2

Видео
Идентификатор : 1
Формат : AVC
Формат/Информация : Advanced Video Codec
Профиль формата : High@L4
Параметр CABAC формата : Да
Параметр ReFrames формата : 5 кадров
Идентификатор кодека : V_MPEG4/ISO/AVC
Продолжительность : 1 ч. 36 м.
Битрейт : 4243 Кбит/сек
Ширина : 1920 пикселей
Высота : 804 пикселя
Соотношение сторон : 2,40:1
Режим частоты кадров : Постоянный
Частота кадров : 24,000 кадра/сек
Цветовое пространство : YUV
Субдискретизация насыщенности : 4:2:0
Битовая глубина : 8 бит
Тип развёртки : Прогрессивная
Бит/(Пиксели*Кадры) : 0.115
Размер потока : 2,86 Гбайт (90%)
Язык : English
Default : Да
Forced : Нет
Цветовой диапазон : Limited
Основные цвета : BT.709
Характеристики трансфера : BT.709
Коэффициенты матрицы : BT.709

Аудио
Идентификатор : 2
Формат : AC-3
Формат/Информация : Audio Coding 3
Расширение режима : CM (complete main)
Параметр Endianness формата : Big
Идентификатор кодека : A_AC3
Продолжительность : 1 ч. 36 м.
Вид битрейта : Постоянный
Битрейт : 384 Кбит/сек
Каналы : 6 каналов
Расположение каналов : Front: L C R, Side: L R, LFE
Частота : 48,0 КГц
Метод сжатия : С потерями
Размер потока : 265 Мбайт (8%)
Язык : Russian
Default : Да
Forced : Нет

Меню
00:00:00.000 : en:Глава 1
00:05:14.000 : en:Глава 2
00:10:44.000 : en:Глава 3
00:15:51.000 : en:Глава 4
00:21:05.000 : en:Глава 5
00:27:06.000 : en:Глава 6
00:32:27.000 : en:Глава 7
00:38:00.000 : en:Глава 8
00:43:51.000 : en:Глава 9
00:49:50.000 : en:Глава 10
00:55:38.000 : en:Глава 11
01:01:07.000 : en:Глава 12
01:07:03.000 : en:Глава 13
01:12:09.000 : en:Глава 14
01:17:21.000 : en:Глава 15
01:22:28.000 : en:Глава 16
01:27:41.000 : en:Глава 17
скриншот  скриншот  скриншот  pb.wtf



Скачать Шнайдер против Бакса через торрент http://pic1.kartinco.top/images/10/psssc.jpg Скачать фильм Шнайдер против Бакса через торрент бесплантно в хорошем качестве Описание: Шнайдер — наемный убийца-профессионал. Даже в день своего рождения он обязан подчиниться заказчику, некоему Мертенсу, и ... 7.8 10 4
Торрент: Зарегистрирован [2015-12-04 07:18] · скачан: 137 раз
Статус: √ проверено
Размер: 3.18 GB
Как cкачать? Как скачать Шнайдер против Бакса через торрент | qTorrent

% Раздел Тема Автор DL S | L
Фильмы (WEB-DL 720p, 1080p) [ 2.88 GB ] Шнайдер против Бакса / Schneider vs. Bax DUB кэп Скачать
1 | 0

28-11-2019 20:33  

Отключить всю рекламу на сайте

04-12-2015 18:49 Шнайдер против Бакса Скачать торрент  

Фильм за 6 тыщ баксов, и рейтинг не плохой - буду братьpb.wtf



27-12-2015 09:35 Шнайдер против Бакса Скачать торрент  

Сюжет фигня но посмеяться можно.pb.wtf



    Дорогой пользователь! Огромная просьба, поблагодарите релизера, оцените раздачу и оставьте свои комментарий, если Вы скачали Шнайдер против Бакса через торрент бесплатно! Внесите свою лепту в развитие PiratBit!
    Комментировать посты могут только пользователи прошедшие не сложную регистрацию
    Показать сообщения:    

    Шнайдер против Бакса через торрент
    Скачать бесплатно Шнайдер против Бакса
    Шнайдер против Бакса скачать торрент
    Шнайдер против Бакса смотреть онлайн
    Cкачать фильм Шнайдер против Бакса бесплатно
    Шнайдер против Бакса скачать торрент в хорошем качестве
    Шнайдер против Бакса смотреть онлайн бесплатно в хорошем качестве


    Вы не можете начинать темы
    Вы не можете отвечать на сообщения
    Вы не можете редактировать свои сообщения
    Вы не можете удалять свои сообщения
    Вы не можете голосовать в опросах
    Вы не можете прикреплять файлы к сообщениям
    Вы можете скачивать файлы