MEGA NEWS Получи личный уникальный адрес сайта и защити себя от блокировок. Внимание количество ограничено!!!

iTunes

1+1

iTunes

мы

iTunes

1

iTunes

Чернобыль

iTunes

Ральф против интернета

Лицензия

ПШазам

Лицензия

Игра престолов

Лицензия

30
pack

ВАЖНО

!!Акция!!

Alien_RageХит недели

RePack

Resident Evil 21

ИГРА 18+

pack

RePack

Metro:Exodus

!!Акция!!

Alien_Rage

RePack

fifa19

RePack

Assassins Creed: Odyssey

RePack

NEED FOR SPEED™ PAYBACK

3 сезон

9 сезон

Бесстыжие 9 сезон

Все сериалы

все сериалы на PB.wtf

RePack

FAR CRY 5
Ребята, катастрофически не хватает 1900р. для оплаты серверов за АВГУСТ (всвязи с блокировками трафик упал в 3 раза), 1-2р., выручайте.
  

Такси / Taxi (Джафар Панахи) [2015, драма, комедия, WEB-DLRip-AVC, Профессиональный многоголосый [Лицензия / iTunes] R.G.Resident pb.wtf

Такси через торрент pb.wtf

Размер: 2.17 GB | Добавлен: 3 года 10 мес. назад | Торрент скачан:257 раз
Скачать  

04-12-2015 10:49 Такси Скачать торрент  

Такси / Taxi

Год выпуска: 2015
Страна: Иран
Жанр: драма, комедия
Продолжительность: 01:21:07
Перевод: Профессиональный многоголосый [Лицензия / iTunes]
Режиссер: Джафар Панахи
В ролях:

Описание:
Желтое такси колесит по ярким и красочным улицам Тегерана. В такси садятся разнообразные пассажиры, каждый из которых иesidentскренне выражает свои взгляды во время беседы с водителем. А водителем является не кто иной, как сам режиссер фильма Джафар Панахи.
Мировая премьера: 6 февраля 2015

Качество: WEB-DLRip-AVC Rip by schultz R.G.Resident
Формат: MKV
Видео: AVC, 1024x576 (16:9), 3447 kbps, 24 fps, 0,244 bpp
Аудио: AC3 / 5.1 / 48 kHz / 384 kbps / 16 bit

Код:

x264 [info]: frame I:573   Avg QP:16.21  size: 73252
x264 [info]: frame P:31994 Avg QP:17.89  size: 34730
x264 [info]: frame B:84264 Avg QP:19.48  size: 10774
General
Unique ID                                : 252673117474242978075692426729936094254 (0xBE171282CFDB6D70AEA83180C25F842E)
Complete name                            : D:\download\T4xi.2015.P.WEB-DLRip-AVC by schultz R.G.Resident.mkv
Format                                   : Matroska
Format version                           : Version 2
File size                                : 2.17 GiB
Duration                                 : 1h 21mn
Overall bit rate                         : 3 832 Kbps
Encoded date                             : UTC 2015-12-04 06:28:27
Writing application                      : mkvmerge v6.1.0 ('Old Devil') built on Mar  4 2013 09:10:42
Writing library                          : libebml v1.3.0 + libmatroska v1.4.0

Video
ID                                       : 1
Format                                   : AVC
Format/Info                              : Advanced Video Codec
Format profile                           : High@L4.1
Format settings, CABAC                   : Yes
Format settings, ReFrames                : 4 frames
Codec ID                                 : V_MPEG4/ISO/AVC
Duration                                 : 1h 21mn
Bit rate                                 : 3 447 Kbps
Width                                    : 1 024 pixels
Height                                   : 576 pixels
Display aspect ratio                     : 16:9
Frame rate                               : 24.000 fps
Color space                              : YUV
Chroma subsampling                       : 4:2:0
Bit depth                                : 8 bits
Scan type                                : Progressive
Bits/(Pixel*Frame)                       : 0.244
Stream size                              : 1.91 GiB (88%)
Writing library                          : x264 core 130 r2273 b3065e6
Encoding settings                        : cabac=1 / ref=4 / deblock=1:-2:-2 / analyse=0x3:0x113 / me=umh / subme=9 / psy=1 / psy_rd=1.00:0.00 / mixed_ref=1 / me_range=32 / chroma_me=1 / trellis=2 / 8x8dct=1 / cqm=0 / deadzone=21,11 / fast_pskip=0 / chroma_qp_offset=-2 / threads=12 / lookahead_threads=2 / sliced_threads=0 / nr=0 / decimate=0 / interlaced=0 / bluray_compat=0 / constrained_intra=0 / bframes=8 / b_pyramid=2 / b_adapt=2 / b_bias=0 / direct=3 / weightb=1 / open_gop=0 / weightp=2 / keyint=250 / keyint_min=23 / scenecut=40 / intra_refresh=0 / rc_lookahead=60 / rc=2pass / mbtree=0 / bitrate=3447 / ratetol=1.0 / qcomp=0.60 / qpmin=0 / qpmax=69 / qpstep=4 / cplxblur=20.0 / qblur=0.5 / vbv_maxrate=14000 / vbv_bufsize=14000 / nal_hrd=none / ip_ratio=1.40 / pb_ratio=1.30 / aq=1:0.80
Default                                  : Yes
Forced                                   : No

Audio
ID                                       : 2
Format                                   : AC-3
Format/Info                              : Audio Coding 3
Mode extension                           : CM (complete main)
Codec ID                                 : A_AC3
Duration                                 : 1h 21mn
Bit rate mode                            : Constant
Bit rate                                 : 384 Kbps
Channel(s)                               : 6 channels
Channel positions                        : Front: L C R, Side: L R, LFE
Sampling rate                            : 48.0 KHz
Bit depth                                : 16 bits
Compression mode                         : Lossy
Stream size                              : 223 MiB (10%)
Default                                  : Yes
Forced                                   : No


скриншот  скриншот  скриншот  скриншот  
pb.wtf



Скачать Такси через торрент http://i75.fastpic.ru/big/2015/1202/11/4fef168fafbd453c30424399f6760b11.jpg Скачать фильм Такси через торрент бесплантно в хорошем качестве Описание: Желтое такси колесит по ярким и красочным улицам Тегерана. В такси садятся разнообразные пассажиры, каждый из которых ... 10 10 4
Info! Золотая раздача, скачанное не засчитывается.
Торрент: Зарегистрирован [2015-12-04 10:49] · скачан: 257 раз
Статус: √ проверено
Размер: 2.17 GB
Как cкачать? Как скачать Такси через торрент | qTorrent


>> Регистрируемся здесь <<






Отзывы и комментарии о схеме читаем и пишем здесь: ---> Отзывы и комментарии о схеме

Новые благодарочки в телеграм довольных пользователей:
скриншот   скриншот   скриншот   скриншот   скриншот

04-12-2015 13:46 Такси Скачать торрент  

интересный кино?pb.wtf



04-12-2015 16:53 Такси Скачать торрент  

Антонн писал(а):

интересный кино?

Страна: Иран
Режиссер: Джафар Панахи
спилберг курит невзатягpb.wtf



04-12-2015 21:37 Такси Скачать торрент  

Бюджет около 6000$ - Джафар, где деньги ?! И откуда рейтинг ?!pb.wtf



05-12-2015 04:02 Такси Скачать торрент  

shadow912 писал(а):

Антонн писал(а):

интересный кино?

Страна: Иран
Режиссер: Джафар Панахи
спилберг курит невзатяг

sarcastic sarcasticpb.wtf



05-12-2015 08:41 Такси Скачать торрент  

Скорость дайте !!!pb.wtf



    Дорогой пользователь! Огромная просьба, поблагодарите релизера, оцените раздачу и оставьте свои комментарий, если Вы скачали Такси через торрент бесплатно! Внесите свою лепту в развитие PiratBit!
    Комментировать посты могут только пользователи прошедшие не сложную регистрацию
    Показать сообщения:    

    Такси через торрент
    Скачать бесплатно Такси
    Такси скачать торрент
    Такси смотреть онлайн
    Cкачать фильм Такси бесплатно
    Такси скачать торрент в хорошем качестве
    Такси смотреть онлайн бесплатно в хорошем качестве


    Вы не можете начинать темы
    Вы не можете отвечать на сообщения
    Вы не можете редактировать свои сообщения
    Вы не можете удалять свои сообщения
    Вы не можете голосовать в опросах
    Вы не можете прикреплять файлы к сообщениям
    Вы можете скачивать файлы