Ссылка на приватное зеркало нашего сайта всего за 1$. Внимание количество ограничено!!!

2 сезон

iTunes

1 сезон

1

iTunes

iTunes

iTunes

1 сезон

RePack

30

ИГРА 18+

pack

ВАЖНО

!!Акция!!

Alien_RageХит недели

RePack

MK11
pack

Забери бонус

RePack

jed

!!Акция!!

Alien_Rage

RePack

fifa19

RePack

Assassins Creed: Odyssey

RePack

NEED FOR SPEED™ PAYBACK

4 сезон

9 сезон

Бесстыжие 9 сезон

Все сериалы

все сериалы на PB.wtf

RePack

FAR CRY 5
  

Слежка 2: Снова в засаде / Another Stakeout (Джон Бэдэм) [1993, боевик, триллер, комедия, криминал, BDRip 1080p by msltel] MVO, 3 x AVO pb.wtf

Слежка 2: Снова в засаде через торрент pb.wtf

Размер: 12.57 GB | Добавлен: 4 года 10 мес. назад | Торрент скачан:13 раз
Скачать  

04-12-2015 11:33 Слежка 2: Снова в засаде Скачать торрент  

Название: Слежка 2: Снова в засаде
Оригинальное название: Another Stakeout
Год выпуска: 1993
Страна: США
Жанр: боевик, триллер, комедия, криминал
Продолжительность: 01:52:31
Перевод: профессиональный многоголосый, авторский

Режиссёр: Джон Бэдэм

В ролях: Ричард Дрейфусс, Эмилио Эстевез, Рози О’Доннелл, Деннис Фарина, Марша Стрэссмен, Кэти Мориарти, Джон Рубинстайн, Мигель Феррер, Шарон Мофан, Кристофер Дойл, Шарон Шаффер, Рик Симан, Джен Спэк, Джин Эллисон-Джонс, Фрэнк ДеАнджело

Описание: Полицейским Крису и Биллу вновь доверяют ответственное задание. На этот раз им предстоит разыскать важного свидетеля, который скрывается от мести мафии. Вдвоём они без труда справились бы с этим поручением, но в их дружной компании появляется третий лишний, когда окружной прокурор направляет к ним помощницу Джину. Эта самоуверенная дама приводит с собой собачку — огромного ротвейлера. Вместе они отправляются на поиски и обязательно выполнят задание, если по пути пёсик не слопает друзей, а полицейские и их новая напарница не перестреляют друг друга...



Качество: BDRip 1080p Сравнение с исходником
Формат: MKV
Видео: MPEG-4 AVC, 10.7 Mбит/с, 1920x816, 23,976 кадра/с
Аудио 1: русский, AC3, 192 kbps, 2 ch, 48 kHz [профессиональный многоголосый]
Аудио 2: русский, AC3, 256 kbps, 2 ch, 48 kHz [авторский, Леонид Володарский]
Аудио 3: русский, DTS, 1509 kbps, 2 ch, 48 kHz [авторский, Андрей Гаврилов]
Аудио 4: русский, DTS, 1509 kbps, 2 ch, 48 kHz [авторский, Василий Горчаков]
Аудио 5: английский, DTS, 1509 kbps, 2 ch, 48 kHz [оригинал]
Субтитры 1: русские
Субтитры 2: английские
Общее
Уникальный идентификатор : 198327772061114277688583086419314645095 (0x95348A1CC70DC19AA2172AD20A7A9867)
Полное имя : D:\Video\Слежка 2.1993.BDRip.1080p.mkv
Формат : Matroska
Версия формата : Version 4 / Version 2
Размер файла : 12,6 Гбайт
Продолжительность : 1 ч. 52 м.
Общий поток : 16,0 Мбит/сек
Дата кодирования : UTC 2015-12-04 10:31:40
Программа кодирования : mkvmerge v8.2.0 ('World of Adventure') 64bit
Библиотека кодирования : libebml v1.3.1 + libmatroska v1.4.2
DURATION : 01:48:36.896000000
NUMBER_OF_FRAMES : 610959
NUMBER_OF_BYTES : 1229249572
_STATISTICS_WRITING_APP : mkvmerge v8.2.0 ('World of Adventure') 64bit
_STATISTICS_WRITING_DATE_UTC : 2015-12-04 10:31:40
_STATISTICS_TAGS : BPS DURATION NUMBER_OF_FRAMES NUMBER_OF_BYTES

Видео
Идентификатор : 1
Формат : AVC
Формат/Информация : Advanced Video Codec
Профиль формата : High@L4.1
Параметр CABAC формата : Да
Параметр ReFrames формата : 4 кадра
Идентификатор кодека : V_MPEG4/ISO/AVC
Продолжительность : 1 ч. 52 м.
Битрейт : 10,7 Мбит/сек
Ширина : 1920 пикселей
Высота : 816 пикселей
Соотношение сторон : 2,35:1
Режим частоты кадров : Постоянный
Частота кадров : 23,976 кадра/сек
Цветовое пространство : YUV
Субдискретизация насыщенности : 4:2:0
Битовая глубина : 8 бит
Тип развёртки : Прогрессивная
Бит/(Пиксели*Кадры) : 0.285
Размер потока : 8,41 Гбайт (67%)
Библиотека кодирования : x264 core 146 r2538 121396c
Настройки программы : cabac=1 / ref=4 / deblock=1:-1:-1 / analyse=0x3:0x113 / me=umh / subme=10 / psy=1 / psy_rd=1.00:0.15 / mixed_ref=1 / me_range=32 / chroma_me=1 / trellis=2 / 8x8dct=1 / cqm=0 / deadzone=21,11 / fast_pskip=1 / chroma_qp_offset=-3 / threads=6 / lookahead_threads=1 / sliced_threads=0 / nr=0 / decimate=1 / interlaced=0 / bluray_compat=0 / constrained_intra=0 / bframes=10 / b_pyramid=2 / b_adapt=2 / b_bias=0 / direct=1 / weightb=1 / open_gop=0 / weightp=2 / keyint=230 / keyint_min=23 / scenecut=40 / intra_refresh=0 / rc_lookahead=40 / rc=crf / mbtree=0 / crf=19.0 / qcomp=0.60 / qpmin=0 / qpmax=69 / qpstep=4 / vbv_maxrate=40000 / vbv_bufsize=50000 / crf_max=0.0 / nal_hrd=none / filler=0 / ip_ratio=1.40 / pb_ratio=1.30 / aq=1:1.00
Язык : English
Default : Да
Forced : Нет
DURATION : 01:48:36.886000000
NUMBER_OF_FRAMES : 156249
NUMBER_OF_BYTES : 9439008197
_STATISTICS_WRITING_APP : mkvmerge v8.2.0 ('World of Adventure') 64bit
_STATISTICS_WRITING_DATE_UTC : 2015-12-04 10:31:40
_STATISTICS_TAGS : BPS DURATION NUMBER_OF_FRAMES NUMBER_OF_BYTES

Аудио #1
Идентификатор : 2
Формат : AC-3
Формат/Информация : Audio Coding 3
Расширение режима : CM (complete main)
Параметр Endianness формата : Big
Идентификатор кодека : A_AC3
Продолжительность : 1 ч. 52 м.
Вид битрейта : Постоянный
Битрейт : 192 Кбит/сек
Каналы : 2 канала
Расположение каналов : Front: L R
Частота : 48,0 КГц
Метод сжатия : С потерями
Размер потока : 155 Мбайт (1%)
Заголовок : MVO
Язык : Russian
Default : Да
Forced : Нет

Аудио #2
Идентификатор : 3
Формат : AC-3
Формат/Информация : Audio Coding 3
Расширение режима : CM (complete main)
Параметр Endianness формата : Big
Идентификатор кодека : A_AC3
Продолжительность : 1 ч. 52 м.
Вид битрейта : Постоянный
Битрейт : 256 Кбит/сек
Каналы : 2 канала
Расположение каналов : Front: L R
Частота : 48,0 КГц
Метод сжатия : С потерями
Размер потока : 206 Мбайт (2%)
Заголовок : AVO (Леонид Володарский)
Язык : Russian
Default : Нет
Forced : Нет

Аудио #3
Идентификатор : 4
Формат : DTS
Формат/Информация : Digital Theater Systems
Режим : 16
Параметр Endianness формата : Big
Идентификатор кодека : A_DTS
Продолжительность : 1 ч. 52 м.
Вид битрейта : Постоянный
Битрейт : 1509 Кбит/сек
Каналы : 2 канала
Расположение каналов : Front: L R
Частота : 48,0 КГц
Битовая глубина : 24 бит
Метод сжатия : С потерями
Размер потока : 1,19 Гбайт (9%)
Заголовок : AVO (Андрей Гаврилов)
Язык : Russian
Default : Нет
Forced : Нет

Аудио #4
Идентификатор : 5
Формат : DTS
Формат/Информация : Digital Theater Systems
Режим : 16
Параметр Endianness формата : Big
Идентификатор кодека : A_DTS
Продолжительность : 1 ч. 52 м.
Вид битрейта : Постоянный
Битрейт : 1509 Кбит/сек
Каналы : 2 канала
Расположение каналов : Front: L R
Частота : 48,0 КГц
Битовая глубина : 24 бит
Метод сжатия : С потерями
Размер потока : 1,19 Гбайт (9%)
Заголовок : AVO (Василий Горчаков)
Язык : Russian
Default : Нет
Forced : Нет

Аудио #5
Идентификатор : 6
Формат : DTS
Формат/Информация : Digital Theater Systems
Режим : 16
Параметр Endianness формата : Big
Идентификатор кодека : A_DTS
Продолжительность : 1 ч. 52 м.
Вид битрейта : Постоянный
Битрейт : 1509 Кбит/сек
Каналы : 2 канала
Расположение каналов : Front: L R
Частота : 48,0 КГц
Битовая глубина : 24 бит
Метод сжатия : С потерями
Размер потока : 1,19 Гбайт (9%)
Заголовок : Original
Язык : English
Default : Нет
Forced : Нет

Текст #1
Идентификатор : 7
Формат : UTF-8
Идентификатор кодека : S_TEXT/UTF8
Идентификатор кодека/Информация : UTF-8 Plain Text
Заголовок : русский
Язык : Russian
Default : Нет
Forced : Нет

Текст #2
Идентификатор : 8
Формат : UTF-8
Идентификатор кодека : S_TEXT/UTF8
Идентификатор кодека/Информация : UTF-8 Plain Text
Заголовок : английский
Default : Нет
Forced : Нет
pb.wtf



Скачать Слежка 2: Снова в засаде через торрент http://s019.radikal.ru/i634/1512/84/ad3e2e0f3b95.png Скачать фильм Слежка 2: Снова в засаде через торрент бесплантно в хорошем качестве Описание: Полицейским Крису и Биллу вновь доверяют ответственное задание. На этот раз им предстоит разыскать важного свидетеля, который ... 10 10 2
Торрент: Зарегистрирован [2015-12-04 11:33] · скачан: 13 раз
Статус: √ проверено
Размер: 12.57 GB
Как cкачать? Как скачать Слежка 2: Снова в засаде через торрент | qTorrent

% Раздел Тема Автор DL S | L
Фильмы [HD 720p, 1080p] (Хороший звук DUB, MVO) [ 4.1 GB ] Слежка 2: Снова в засаде / Another Stakeout [1993 BDRip 720p by msltel] MVO 3 x AVO msltel Скачать
1 | 0
Фильмы до 2000 г. [ 2.6 GB ] Слежка 2: Снова в засаде / Another Stakeout [1993 BDRip AVC by msltel] MVO 3 x AVO msltel Скачать
1 | 0

28-11-2019 20:33  

Отключить всю рекламу на сайте

04-12-2015 17:31 Слежка 2: Снова в засаде Скачать торрент  

Старое,доброе кино.pb.wtf



    Дорогой пользователь! Огромная просьба, поблагодарите релизера, оцените раздачу и оставьте свои комментарий, если Вы скачали Слежка 2: Снова в засаде через торрент бесплатно! Внесите свою лепту в развитие PiratBit!
    Комментировать посты могут только пользователи прошедшие не сложную регистрацию
    Показать сообщения:    

    Слежка 2: Снова в засаде через торрент
    Скачать бесплатно Слежка 2: Снова в засаде
    Слежка 2: Снова в засаде скачать торрент
    Слежка 2: Снова в засаде смотреть онлайн
    Cкачать фильм Слежка 2: Снова в засаде бесплатно
    Слежка 2: Снова в засаде скачать торрент в хорошем качестве
    Слежка 2: Снова в засаде смотреть онлайн бесплатно в хорошем качестве


    Вы не можете начинать темы
    Вы не можете отвечать на сообщения
    Вы не можете редактировать свои сообщения
    Вы не можете удалять свои сообщения
    Вы не можете голосовать в опросах
    Вы не можете прикреплять файлы к сообщениям
    Вы можете скачивать файлы