Ссылка на приватное зеркало нашего сайта всего за 1$. Внимание количество ограничено!!!

2 сезон

iTunes

1 сезон

1

2 сезон

2 сезон

iTunes

1 сезон

RePack

30

Ultimate

ВАЖНО

ИГРА 18+

pack

RePack

MK11
pack

Забери бонус

RePack

jed

!!Акция!!

Alien_Rage

RePack

fifa19

RePack

Assassins Creed: Odyssey

RePack

NEED FOR SPEED™ PAYBACK

4 сезон

9 сезон

Бесстыжие 9 сезон

Все сериалы

все сериалы на PB.wtf

RePack

FAR CRY 5
  

Особое мнение / Minority Report / Сезон: 1 / Серии: 1-10 (10) (Грег Биман, Сара Пиа Андерсон, Олатунде Осунсанми) [2015 г., фантастика, драма, WEB-DLRip] MVO BaibaKo + Original pb.wtf

Особое мнение через торрент pb.wtf

Размер: 5.72 GB | Добавлен: 4 года 11 мес. назад | Торрент скачан:18 раз
Скачать  

04-12-2015 11:51 Особое мнение Скачать торрент  

Особое мнение / Minority Report
Год выпуска: 2015
Страна: США
Жанр: фантастика, драма
Продолжительность: ~00:45:00.
Перевод: Профессиональный (многоголосый) - BaibaKo

Режиссер: Грег Биман, Сара Пиа Андерсон, Олатунде Осунсанми



В ролях: Мэган Гуд, Уилмер Вальдеррама, Ник Зано, Лаура Риган, Старк Сэндс, Коннор Филдинг, Ли Цзюнь Ли, Дэниэл Лондон, Тина Лиффорд, Эндрю Стюарт-Джонс

Описание: Вашингтон. 2065 год. Экспериментальная программа профилактики преступлений (ППП), с помощью которой подозреваемых арестовывали еще до совершения ими убийств и правонарушений, упразднена. Один из трех Провидцев пытается вести «нормальную» человеческую жизнь, но он по-прежнему подвержен видениям будущего. Дэш встречает детектива Лару Вега, которую не отпускает прошлое. Она может помочь найти предназначение его дару.

Качество: WEB-DLRip
Формат: AVI
Видео кодек: XviD
Аудио кодек: MP3
Видео: 720x400 (16:9), 23.976 fps, ~1500 kb/s
Аудио#1 Rus: MP3, 48 kHz, 2 ch, 192 kb/s - Русский
Аудио#2 Eng: MP3, 48 kHz, 2 ch, 192 kb/s - оригинал английский

скриншот   скриншот   скриншот   скриншот   скриншот  

General
Complete name : C:\Users\tut\Desktop\закаченое\Minority Report s01 2015 WEB-DLRip - BaibaKo\Minority.Report.s01e01.WEB-DLRip.XviD.Rus.Eng.avi
Format : AVI
Format/Info : Audio Video Interleave
File size : 612 MiB
Duration : 45mn 3s
Overall bit rate : 1 898 Kbps
Writing application : VirtualDubMod 1.5.10.2 (build 2540/release)
Writing library : VirtualDubMod build 2540/release

Video
ID : 0
Format : MPEG-4 Visual
Format profile : Advanced Simple@L5
Format settings, BVOP : 2
Format settings, QPel : No
Format settings, GMC : No warppoints
Format settings, Matrix : Default (H.263)
Codec ID : XVID
Codec ID/Hint : XviD
Duration : 45mn 3s
Bit rate : 1 500 Kbps
Width : 720 pixels
Height : 400 pixels
Display aspect ratio : 16:9
Frame rate : 23.976 (24000/1001) fps
Color space : YUV
Chroma subsampling : 4:2:0
Bit depth : 8 bits
Scan type : Progressive
Compression mode : Lossy
Bits/(Pixel*Frame) : 0.217
Stream size : 483 MiB (79%)
Writing library : XviD 67

Audio #1
ID : 1
Format : MPEG Audio
Format version : Version 1
Format profile : Layer 3
Mode : Joint stereo
Mode extension : MS Stereo
Codec ID : 55
Codec ID/Hint : MP3
Duration : 45mn 3s
Bit rate mode : Constant
Bit rate : 192 Kbps
Channel(s) : 2 channels
Sampling rate : 48.0 KHz
Compression mode : Lossy
Stream size : 61.9 MiB (10%)
Alignment : Aligned on interleaves
Interleave, duration : 42 ms (1.00 video frame)
Interleave, preload duratio : 504 ms

Audio #2
ID : 2
Format : MPEG Audio
Format version : Version 1
Format profile : Layer 3
Mode : Joint stereo
Mode extension : MS Stereo
Codec ID : 55
Codec ID/Hint : MP3
Duration : 45mn 3s
Bit rate mode : Constant
Bit rate : 192 Kbps
Channel(s) : 2 channels
Sampling rate : 48.0 KHz
Compression mode : Lossy
Stream size : 61.9 MiB (10%)
Alignment : Aligned on interleaves
Interleave, duration : 42 ms (1.00 video frame)
Interleave, preload duratio : 504 ms[/code]

Действие сериала происходит спустя 10 лет после событий одноимённого фильма с Томом Крузом.
Автор перевода: Фиона Кудреватых
Озвучка: Ольга Мотрич, Юлия Котурбаш, Артемий Мирон и Александр Фурман
pb.wtf



Скачать Особое мнение через торрент http://pic1.kartinco.top/images/10/f318e.jpg Скачать фильм Особое мнение через торрент бесплантно в хорошем качестве Описание: Вашингтон. 2065 год. Экспериментальная программа профилактики преступлений (ППП), с помощью которой подозреваемых арестовывали ... 10 10 6
Info! Золотая раздача, скачанное не засчитывается.
Торрент: Зарегистрирован [2015-12-04 11:51] · скачан: 18 раз
Статус: √ проверено
Размер: 5.72 GB
Как cкачать? Как скачать Особое мнение через торрент | qTorrent

28-11-2019 20:33  

Отключить всю рекламу на сайте

04-12-2015 11:58 Особое мнение Скачать торрент  

хоть получилось...pb.wtf



04-12-2015 12:23 Особое мнение Скачать торрент  

Serejechka, Flash Release - программа для автоматизации создания релизов с этим намного все проще, пробуйте! Проверено, спасибо за релиз.pb.wtf



04-12-2015 13:43 Особое мнение Скачать торрент  

и как сериал товарищи?pb.wtf



    Дорогой пользователь! Огромная просьба, поблагодарите релизера, оцените раздачу и оставьте свои комментарий, если Вы скачали Особое мнение через торрент бесплатно! Внесите свою лепту в развитие PiratBit!
    Комментировать посты могут только пользователи прошедшие не сложную регистрацию
    Показать сообщения:    

    Особое мнение через торрент
    Скачать бесплатно Особое мнение
    Особое мнение скачать торрент
    Особое мнение смотреть онлайн
    Cкачать фильм Особое мнение бесплатно
    Особое мнение скачать торрент в хорошем качестве
    Особое мнение смотреть онлайн бесплатно в хорошем качестве


    Вы не можете начинать темы
    Вы не можете отвечать на сообщения
    Вы не можете редактировать свои сообщения
    Вы не можете удалять свои сообщения
    Вы не можете голосовать в опросах
    Вы не можете прикреплять файлы к сообщениям
    Вы можете скачивать файлы