Ссылка на приватное зеркало нашего сайта всего за 1$. Внимание количество ограничено!!!

2 сезон

iTunes

1 сезон

1

2 сезон

2 сезон

iTunes

1 сезон

RePack

30

Новинка

ВАЖНО

ИГРА 18+

pack

RePack

MK11
pack

Забери бонус

RePack

jed

!!Акция!!

Alien_Rage

RePack

fifa19

RePack

Assassins Creed: Odyssey

RePack

NEED FOR SPEED™ PAYBACK

4 сезон

9 сезон

Бесстыжие 9 сезон

Все сериалы

все сериалы на PB.wtf

RePack

FAR CRY 5
  

Девушка без комплексов / Trainwreck (Джудд Апатоу / Judd Apatow) [2015, мелодрама, комедия, BDRip-AVC от potroks] DUB Лицензия pb.wtf

Девушка без комплексов через торрент pb.wtf

Размер: 1.46 GB | Добавлен: 4 года 11 мес. назад | Торрент скачан:406 раз
Скачать  

04-12-2015 21:02 Девушка без комплексов Скачать торрент  

Девушка без комплексов / Trainwreck
«Ни в чём себе не отказывай»
Год выпуска: 2015
Страна: США / Universal Pictures...
Жанр: мелодрама, комедия
Продолжительность: 02:04:38
Перевод: Дубляж [BD CEE]
Субтитры: русские (полные + форс.)
Навигация по главам: есть
Режиссер: Джудд Апатоу / Judd Apatow
В ролях:

Эми Шумер (Amy), Билл Хейдер (Aaron), Бри Ларсон (Kim), Колин Куинн (Gordon), Джон Сина (Steven), Ванесса Байер (Nikki), Майк Бирбиглия (Tom), Эзра Миллер (Donald), Дэйв Аттелль (Noam), Тильда Суинтон (Dianna), Леброн Джеймс (LeBron James), Девин Фабри (Nine Year Old Amy)
Описание: У симпатичной девушки Эми никогда не было серьезных отношений. Она придерживается свободных взглядов и обычно не ходит дважды с одним парнем на свидание. Будучи сотрудницей крупного мужского издания, она получает задание от шефа написать статью о спортивном враче Ароне. Эми и не рассчитывала, что деловая встреча с доктором изменит ее жизнь.

Качество: BDRip-AVC
Формат: MKV
Видео кодек: AVC
Аудио кодек: AC3
Видео: 912x380 (2.40:1), 1229 kbps, 23,976 fps, 0,148 bit/pixel
Аудио: AC3 / 5.1 / 48 kHz / 448 kbps / 16 bit

Релиз группы:
Автор рипа: potroks

Код:

General
Unique ID                                : 199754909648755648798458524082911446547 (0x9647656D90D46555B078EEBEFC9E0613)
Complete name                            : N:\Комедия\Devushka.Bez.Kompleksov.2015.TC.RUS.BDRip.x264.-HELLYWOOD.mkv
Format                                   : Matroska
Format version                           : Version 4 / Version 2
File size                                : 1.46 GiB
Duration                                 : 2h 4mn
Overall bit rate                         : 1 678 Kbps
Movie name                               : Trainwreck (2015) - HELLYWOOD
Encoded date                             : UTC 2010-02-22 21:41:31
Writing application                      : mkvmerge v5.8.0 ('No Sleep / Pillow') built on Sep 30 2012 10:57:14
Writing library                          : libebml v1.3.0 + libmatroska v1.4.0

Video
ID                                       : 1
Format                                   : AVC
Format/Info                              : Advanced Video Codec
Format profile                           : High@L4.1
Format settings, CABAC                   : Yes
Format settings, ReFrames                : 12 frames
Codec ID                                 : V_MPEG4/ISO/AVC
Duration                                 : 2h 4mn
Bit rate                                 : 1 229 Kbps
Width                                    : 912 pixels
Height                                   : 380 pixels
Display aspect ratio                     : 2.40:1
Frame rate                               : 23.976 fps
Color space                              : YUV
Chroma subsampling                       : 4:2:0
Bit depth                                : 8 bits
Scan type                                : Progressive
Bits/(Pixel*Frame)                       : 0.148
Stream size                              : 1.04 GiB (71%)
Title                                    : potroks
Writing library                          : x264 core 146 r2538 121396c
Encoding settings                        : cabac=1 / ref=12 / deblock=1:-2:-2 / analyse=0x3:0x113 / me=umh / subme=11 / psy=1 / psy_rd=1.00:0.05 / mixed_ref=1 / me_range=48 / chroma_me=1 / trellis=2 / 8x8dct=1 / cqm=0 / deadzone=21,11 / fast_pskip=0 / chroma_qp_offset=-3 / threads=9 / lookahead_threads=2 / sliced_threads=0 / nr=0 / decimate=0 / interlaced=0 / bluray_compat=0 / constrained_intra=0 / bframes=13 / b_pyramid=2 / b_adapt=2 / b_bias=0 / direct=3 / weightb=1 / open_gop=0 / weightp=2 / keyint=250 / keyint_min=23 / scenecut=40 / intra_refresh=0 / rc_lookahead=60 / rc=2pass / mbtree=0 / bitrate=1229 / ratetol=1.0 / qcomp=0.70 / qpmin=0 / qpmax=69 / qpstep=4 / cplxblur=20.0 / qblur=0.5 / vbv_maxrate=14000 / vbv_bufsize=14000 / nal_hrd=none / filler=0 / ip_ratio=1.35 / pb_ratio=1.25 / aq=1:0.80
Language                                 : English
Default                                  : Yes
Forced                                   : No

Audio
ID                                       : 2
Format                                   : AC-3
Format/Info                              : Audio Coding 3
Mode extension                           : CM (complete main)
Codec ID                                 : A_AC3
Duration                                 : 2h 4mn
Bit rate mode                            : Constant
Bit rate                                 : 448 Kbps
Channel(s)                               : 6 channels
Channel positions                        : Front: L C R, Side: L R, LFE
Sampling rate                            : 48.0 KHz
Bit depth                                : 16 bits
Compression mode                         : Lossy
Stream size                              : 399 MiB (27%)
Title                                    : Dub | DD 5.1 @ 448 kbps - Blu-Ray CEE
Language                                 : Russian
Default                                  : Yes
Forced                                   : No

Text #1
ID                                       : 3
Format                                   : UTF-8
Codec ID                                 : S_TEXT/UTF8
Codec ID/Info                            : UTF-8 Plain Text
Title                                    : Forced
Language                                 : Russian
Default                                  : Yes
Forced                                   : No

Text #2
ID                                       : 4
Format                                   : UTF-8
Codec ID                                 : S_TEXT/UTF8
Codec ID/Info                            : UTF-8 Plain Text
Title                                    : Blu-Ray
Language                                 : Russian
Default                                  : No
Forced                                   : No

Menu
00:00:00.000                             : en:Chapter 1
00:04:41.281                             : en:Chapter 2
00:12:21.990                             : en:Chapter 3
00:19:41.512                             : en:Chapter 4
00:25:38.118                             : en:Chapter 5
00:31:38.020                             : en:Chapter 6
00:38:46.907                             : en:Chapter 7
00:45:36.817                             : en:Chapter 8
00:51:22.704                             : en:Chapter 9
00:56:23.713                             : en:Chapter 10
01:00:18.489                             : en:Chapter 11
01:05:57.202                             : en:Chapter 12
01:12:06.320                             : en:Chapter 13
01:20:40.335                             : en:Chapter 14
01:28:51.617                             : en:Chapter 15
01:34:26.868                             : en:Chapter 16
01:39:08.024                             : en:Chapter 17
01:46:17.412                             : en:Chapter 18
01:54:06.506                             : en:Chapter 19
01:59:10.268                             : en:Chapter 20

pb.wtf



Скачать Девушка без комплексов через торрент http://s018.radikal.ru/i512/1512/a6/39bca5c30ab7.png Скачать фильм Девушка без комплексов через торрент бесплантно в хорошем качестве Описание: У симпатичной девушки Эми никогда не было серьезных отношений. Она придерживается свободных взглядов и обычно не ходит дважды с ... 9 10 3
Торрент: Зарегистрирован [2015-12-04 21:02] · скачан: 406 раз
Статус: √ проверено
Размер: 1.46 GB
Как cкачать? Как скачать Девушка без комплексов через торрент | qTorrent

% Раздел Тема Автор DL S | L
Фильмы 2015 [DVDrip, WEB-DLRip, HDrip] [ 2.05 GB ] Девушка без комплексов / Trainwreck [2015 HDRip] killermax2013 Скачать
1 | 0
Фильмы 2015 [DVDrip, WEB-DLRip, HDrip] [ 2.18 GB ] Девушка без комплексов / Trainwreck [2015 BDRip-AVC] DUB potroks Скачать
1 | 0
Фильмы 2015 [DVDrip, WEB-DLRip, HDrip] [ 2.18 GB ] Девушка без комплексов / Trainwreck [2015 BDRip-AVC от sokol_ok] [Театральная версия] DUB sokol_ok Скачать
2 | 0
Фильмы 2015 [DVDrip, WEB-DLRip, HDrip] [ 1.46 GB ] Девушка без комплексов / Trainwreck [2015 BDRip-AVC от sokol_ok] [Театральная версия] DUB sokol_ok Скачать
2 | 0
Фильмы (Blu-ray, BD-Remux, HDDVD) [ 22.57 GB ] Девушка без комплексов / Trainwreck [2015 BD-Remux ] Театральная Версия Russian Mafia Скачать
1 | 0

28-11-2019 20:33  

Отключить всю рекламу на сайте

05-12-2015 05:28 Девушка без комплексов Скачать торрент  

Спасибо. pb.wtf



    Дорогой пользователь! Огромная просьба, поблагодарите релизера, оцените раздачу и оставьте свои комментарий, если Вы скачали Девушка без комплексов через торрент бесплатно! Внесите свою лепту в развитие PiratBit!
    Комментировать посты могут только пользователи прошедшие не сложную регистрацию
    Показать сообщения:    

    Девушка без комплексов через торрент
    Скачать бесплатно Девушка без комплексов
    Девушка без комплексов скачать торрент
    Девушка без комплексов смотреть онлайн
    Cкачать фильм Девушка без комплексов бесплатно
    Девушка без комплексов скачать торрент в хорошем качестве
    Девушка без комплексов смотреть онлайн бесплатно в хорошем качестве


    Вы не можете начинать темы
    Вы не можете отвечать на сообщения
    Вы не можете редактировать свои сообщения
    Вы не можете удалять свои сообщения
    Вы не можете голосовать в опросах
    Вы не можете прикреплять файлы к сообщениям
    Вы можете скачивать файлы