Ссылка на приватное зеркало нашего сайта всего за 1$. Внимание количество ограничено!!!

2 сезон

iTunes

1 сезон

1

iTunes

iTunes

iTunes

1 сезон

RePack

30

ИГРА 18+

pack

ВАЖНО

!!Акция!!

Alien_RageХит недели

RePack

MK11
pack

Забери бонус

RePack

jed

!!Акция!!

Alien_Rage

RePack

fifa19

RePack

Assassins Creed: Odyssey

RePack

NEED FOR SPEED™ PAYBACK

4 сезон

9 сезон

Бесстыжие 9 сезон

Все сериалы

все сериалы на PB.wtf

RePack

FAR CRY 5
  

Шпион / Spy (Пол Фиг / Paul Feig) [2015, боевик, комедия, криминал, BDRip 720p от potroks] Dub [Расширенная версия] [Лицензия] pb.wtf

Шпион через торрент pb.wtf

Размер: 7.43 GB | Добавлен: 4 года 10 мес. назад | Торрент скачан:587 раз
Скачать  

05-12-2015 12:06 Шпион Скачать торрент  

Шпион / Spy
«Одна из пижонов. Одна из шпионов»
Год выпуска: 2015
Страна: США / Twentieth Century Fox, Feigco Entertainment
Жанр: боевик, комедия, криминал
Продолжительность: 02:10:22
Перевод: Дубляж [BD EUR], Авторский (одноголосый) [Ю.Живов, М.Яроцкий]
Субтитры: русские (полные + форс.), украинские (полные + форс.), английские (Full + SDH + SDH-Colored)
Навигация по главам: есть
Режиссер: Пол Фиг / Paul Feig
В ролях:

Мелисса МакКарти (Susan Cooper), Джейсон Стэйтем (Rick Ford), Джуд Лоу (Bradley Fine), Роуз Бирн (Rayna Boyanov), Миранда Харт (Nancy B. Artingstall), Бобби Каннавале (Sergio De Luca), Морена Баккарин (Karen Walker), Питер Серафинович (Aldo), Эллисон Дженни (Elaine Crocker), Ричард Брэйк (Solsa Dudaev), Раад Рави (Tihomir Boyanov), Джессика Чаффин (Sharon)
Описание: Сьюзан Купер всю свою жизнь мечтала стать секретным агентом и даже устроилась работать в ЦРУ. Однако, дальше сотрудника самой низкой ступени ей так и не удалось продвинуться. Понимая, что осуществить свою мечту практически невозможно, она все-таки продолжает надеяться на лучшее и с нетерпением ожидает своего шанса. И вскоре судьба дарит ей такую возможность. Лучший агент проваливает секретное задание, в ходе которого он должен был выяснить местонахождение ядерной бомбы, но, совершенно случайно, застрелил единственного человека, владеющего этой информацией.

Качество: BDRip 720p
Формат: MKV
Видео кодек: AVC
Аудио кодек: AC3
Видео: AVC, 1280x536 (2.40:1), 5337 kbps, 23,976 fps, 0.324 bit/pixel
Аудио№1: AC3 / 5.1 / 48 kHz / 448 kbps / 16 bit | DUB - BD CEE
Аудио№2: AC3 / 5.1 / 48 kHz / 640 kbps / 16 bit | AVO - Ю.Живов
Аудио№3: AC3 / 5.1 / 48 kHz / 640 kbps / 16 bit | AVO - М.Яроцкий
Аудио№4: AC3 / 5.1 / 48 kHz / 448 kbps / 16 bit | UKR - BD CEE
Аудио№5: AC3 / 5.1 / 48 kHz / 640 kbps / 16 bit | ENG

Релиз группы:
Автор рипа: potroks

Код:

General
Unique ID                   : 171945572589872814413069249529785922227 (0x815B8340AC001470896C4DA2B4D4B2B3)
Complete name               : Shpion.2015.UC.DUB.AVO.UKR.ENG.BDRip.720p.-HELLYWOOD.mkv
Format                      : Matroska
Format version              : Version 4 / Version 2
File size                   : 7.43 GiB
Duration                    : 2h 10mn
Overall bit rate            : 8 158 Kbps
Movie name                  : Spy [Unrated] (2015) - HELLYWOOD
Encoded date                : UTC 2010-02-22 21:41:31
Writing application         : mkvmerge v5.8.0 ('No Sleep / Pillow') built on Sep 30 2012 10:57:14
Writing library             : libebml v1.3.0 + libmatroska v1.4.0

Video
ID                          : 1
Format                      : AVC
Format/Info                 : Advanced Video Codec
Format profile              : High@L4.1
Format settings, CABAC      : Yes
Format settings, ReFrames   : 9 frames
Codec ID                    : V_MPEG4/ISO/AVC
Duration                    : 2h 10mn
Bit rate                    : 5 337 Kbps
Width                       : 1 280 pixels
Height                      : 536 pixels
Display aspect ratio        : 2.40:1
Frame rate mode             : Constant
Frame rate                  : 23.976 fps
Color space                 : YUV
Chroma subsampling          : 4:2:0
Bit depth                   : 8 bits
Scan type                   : Progressive
Bits/(Pixel*Frame)          : 0.324
Stream size                 : 4.72 GiB (63%)
Title                       : potroks
Writing library             : x264 core 148 r2597M e86f3a1
Encoding settings           : cabac=1 / ref=9 / deblock=1:-3:-3 / analyse=0x3:0x133 / me=umh / subme=11 / psy=1 / psy_rd=1.00:0.10 / mixed_ref=1 / me_range=48 / chroma_me=1 / trellis=2 / 8x8dct=1 / cqm=0 / deadzone=21,11 / fast_pskip=0 / chroma_qp_offset=-3 / threads=10 / lookahead_threads=2 / sliced_threads=0 / nr=0 / decimate=1 / interlaced=0 / bluray_compat=0 / constrained_intra=0 / bframes=10 / b_pyramid=2 / b_adapt=2 / b_bias=0 / direct=3 / weightb=1 / open_gop=0 / weightp=2 / keyint=250 / keyint_min=23 / scenecut=40 / intra_refresh=0 / rc=2pass / mbtree=0 / bitrate=5337 / ratetol=1.0 / qcomp=0.70 / qpmin=0 / qpmax=69 / qpstep=4 / cplxblur=20.0 / qblur=0.5 / ip_ratio=1.40 / pb_ratio=1.30 / aq=1:0.80
Language                    : English
Default                     : Yes
Forced                      : No

Audio #1
ID                          : 2
Format                      : AC-3
Format/Info                 : Audio Coding 3
Mode extension              : CM (complete main)
Format settings, Endianness : Big
Codec ID                    : A_AC3
Duration                    : 2h 10mn
Bit rate mode               : Constant
Bit rate                    : 448 Kbps
Channel(s)                  : 6 channels
Channel positions           : Front: L C R, Side: L R, LFE
Sampling rate               : 48.0 KHz
Compression mode            : Lossy
Stream size                 : 418 MiB (5%)
Title                       : Dub | DD 5.1 @ 448 kbps - Blu-Ray CEE
Language                    : Russian
Default                     : Yes
Forced                      : No

Audio #2
ID                          : 3
Format                      : AC-3
Format/Info                 : Audio Coding 3
Mode extension              : CM (complete main)
Format settings, Endianness : Big
Codec ID                    : A_AC3
Duration                    : 2h 10mn
Bit rate mode               : Constant
Bit rate                    : 640 Kbps
Channel(s)                  : 6 channels
Channel positions           : Front: L C R, Side: L R, LFE
Sampling rate               : 48.0 KHz
Compression mode            : Lossy
Stream size                 : 597 MiB (8%)
Title                       : AVO | DD 5.1 @ 640 kbps - Yu.Zhivov
Language                    : Russian
Default                     : No
Forced                      : No

Audio #3
ID                          : 4
Format                      : AC-3
Format/Info                 : Audio Coding 3
Mode extension              : CM (complete main)
Format settings, Endianness : Big
Codec ID                    : A_AC3
Duration                    : 2h 10mn
Bit rate mode               : Constant
Bit rate                    : 640 Kbps
Channel(s)                  : 6 channels
Channel positions           : Front: L C R, Side: L R, LFE
Sampling rate               : 48.0 KHz
Compression mode            : Lossy
Stream size                 : 597 MiB (8%)
Title                       : AVO | DD 5.1 @ 640 kbps - M.Yarotsky
Language                    : Russian
Default                     : No
Forced                      : No

Audio #4
ID                          : 5
Format                      : AC-3
Format/Info                 : Audio Coding 3
Mode extension              : CM (complete main)
Format settings, Endianness : Big
Codec ID                    : A_AC3
Duration                    : 2h 10mn
Bit rate mode               : Constant
Bit rate                    : 448 Kbps
Channel(s)                  : 6 channels
Channel positions           : Front: L C R, Side: L R, LFE
Sampling rate               : 48.0 KHz
Compression mode            : Lossy
Stream size                 : 418 MiB (5%)
Title                       : Dub | DD 5.1 @ 448 kbps - Blu-Ray CEE
Language                    : Ukrainian
Default                     : No
Forced                      : No

Audio #5
ID                          : 6
Format                      : AC-3
Format/Info                 : Audio Coding 3
Mode extension              : CM (complete main)
Format settings, Endianness : Big
Codec ID                    : A_AC3
Duration                    : 2h 10mn
Bit rate mode               : Constant
Bit rate                    : 640 Kbps
Channel(s)                  : 6 channels
Channel positions           : Front: L C R, Side: L R, LFE
Sampling rate               : 48.0 KHz
Compression mode            : Lossy
Stream size                 : 597 MiB (8%)
Title                       : Original | DD 5.1 @ 640 kbps
Language                    : English
Default                     : No
Forced                      : No

Text #1
ID                          : 7
Format                      : UTF-8
Codec ID                    : S_TEXT/UTF8
Codec ID/Info               : UTF-8 Plain Text
Title                       : Forced
Language                    : Russian
Default                     : Yes
Forced                      : No

Text #2
ID                          : 8
Format                      : UTF-8
Codec ID                    : S_TEXT/UTF8
Codec ID/Info               : UTF-8 Plain Text
Title                       : Blu-Ray
Language                    : Russian
Default                     : No
Forced                      : No

Text #3
ID                          : 9
Format                      : UTF-8
Codec ID                    : S_TEXT/UTF8
Codec ID/Info               : UTF-8 Plain Text
Title                       : Forced
Language                    : Ukrainian
Default                     : No
Forced                      : No

Text #4
ID                          : 10
Format                      : UTF-8
Codec ID                    : S_TEXT/UTF8
Codec ID/Info               : UTF-8 Plain Text
Title                       : Blu-Ray
Language                    : Ukrainian
Default                     : No
Forced                      : No

Text #5
ID                          : 11
Format                      : UTF-8
Codec ID                    : S_TEXT/UTF8
Codec ID/Info               : UTF-8 Plain Text
Title                       : Full
Language                    : English
Default                     : No
Forced                      : No

Text #6
ID                          : 12
Format                      : UTF-8
Codec ID                    : S_TEXT/UTF8
Codec ID/Info               : UTF-8 Plain Text
Title                       : SDH
Language                    : English
Default                     : No
Forced                      : No

Text #7
ID                          : 13
Format                      : UTF-8
Codec ID                    : S_TEXT/UTF8
Codec ID/Info               : UTF-8 Plain Text
Title                       : SDH-Colored
Language                    : English
Default                     : No
Forced                      : No

Menu
00:00:00.000                : :(01)00:00:00:000
00:03:38.592                : :(02)00:03:38:592
00:07:46.132                : :(03)00:07:46:132
00:10:08.691                : :(04)00:10:08:691
00:14:11.140                : :(05)00:14:11:140
00:15:42.857                : :(06)00:15:42:857
00:20:54.377                : :(07)00:20:54:377
00:23:25.862                : :(08)00:23:25:862
00:27:59.928                : :(09)00:27:59:928
00:31:11.076                : :(10)00:31:11:076
00:34:24.061                : :(11)00:34:24:061
00:39:30.576                : :(12)00:39:30:576
00:45:24.847                : :(13)00:45:24:847
00:47:42.317                : :(14)00:47:42:317
00:50:48.128                : :(15)00:50:48:128
00:55:26.655                : :(16)00:55:26:655
00:58:28.545                : :(17)00:58:28:545
01:03:35.728                : :(18)01:03:35:728
01:08:58.509                : :(19)01:08:58:509
01:11:00.130                : :(20)01:11:00:130
01:16:25.997                : :(21)01:16:25:997
01:22:32.905                : :(22)01:22:32:905
01:28:07.323                : :(23)01:28:07:323
01:33:11.417                : :(24)01:33:11:417
01:37:02.858                : :(25)01:37:02:858
01:40:18.427                : :(26)01:40:18:427
01:47:27.189                : :(27)01:47:27:189
01:50:45.054                : :(28)01:50:45:054
01:55:31.381                : :(29)01:55:31:381
01:59:40.463                : :(30)01:59:40:463
02:02:28.340                : :(31)02:02:28:340
02:05:03.662                : :(32)02:05:03:662

pb.wtf



Скачать Шпион через торрент http://i47.fastpic.ru/big/2015/0918/0c/b4cd74e2a2c4c20de79e5705e5158a0c.png Скачать фильм Шпион через торрент бесплантно в хорошем качестве Описание: Сьюзан Купер всю свою жизнь мечтала стать секретным агентом и даже устроилась работать в ЦРУ. Однако, дальше сотрудника самой ... 8.9 10 8
Торрент: Зарегистрирован [2015-12-05 12:06] · скачан: 587 раз
Статус: √ проверено
Размер: 7.43 GB
Как cкачать? Как скачать Шпион через торрент | qTorrent

% Раздел Тема Автор DL S | L
Фильмы 2015 [DVDrip, WEB-DLRip, HDrip] [ 1.46 GB ] Шпион / Spy [2015 BDRip] DUB Twi7ter Скачать
1 | 0
Фильмы 2018 [DVDrip, WEB-DLRip, HDrip] (DUB, MVO) [ 1.71 GB ] Шпионская игра / The Catcher Was a Spy [2018 WEB-DLRip-AVC] MVO [HDRezka Studio] + bober100 Скачать
1 | 0
Фильмы до 2000 г. [ 1.77 GB ] Неистребимый шпион / Spy Hard [1996 пародия WEB-DLRip] 2x[MVO] + [DVO] + 3х[AVO] killermax2013 Скачать
1 | 0
Ultra HD (UHD: 2K, 4K, 8K) — видео сверхвысокой чёткости [ 30.16 GB ] Шпион / Spy [2015 UHD WEBRip 2160p] DUB [] [Театральная версия] bober100 Скачать
1 | 0
Фильмы 2015 [DVDrip, WEB-DLRip, HDrip] [ 2.91 GB ] Шпионский мост / Bridge of Spies [2015 Германия Индия биография BDRip-AVC от sokol_ok] DUB sokol_ok Скачать
1 | 0
Фильмы (HD 720p, 1080p) (48-60 fps) [ 6.12 GB ] Шпион / Spy [2015 BDRip 720p 60 fps от _denis_100 / NNNB] DUB AVO _denis_100 Скачать
1 | 0
Фильмы [HD 720p, 1080p] (Хороший звук DUB, MVO) [ 7.96 GB ] Шпионский мост / Bridge of Spies [2015 биография BDRip 720p] DUB potroks Скачать
1 | 0

28-11-2019 20:33  

Отключить всю рекламу на сайте

05-12-2015 23:31 Шпион Скачать торрент  

вопреки ожиданиям- тупость редкостная.... очень не рекомендую тратить время на это фуфло.......pb.wtf



07-12-2015 18:39 Шпион Скачать торрент  

Не понравился, он еще и идет 02:10:22, знал бы, смотреть не стал. На тему агентов из нового лучше посмотрите Агенты А.Н.К.Л.pb.wtf



10-02-2016 14:36 Шпион Скачать торрент  

После "Отеля Гранд Будапешт" - это первая комедия, которая вполне понравилась. С удовольствием пересмотрю еще раз.
P.S.: само собой, кто ожидает уровня Бондианы или Миссия невыполнима - идет в другую тему. Тут прежде всего комедия.pb.wtf



14-10-2016 16:51 Шпион Скачать торрент  

Фильм очень даже неплох! Хорошая пародия на шпионские фильмы. Давно так не смеялся! pb.wtf



    Дорогой пользователь! Огромная просьба, поблагодарите релизера, оцените раздачу и оставьте свои комментарий, если Вы скачали Шпион через торрент бесплатно! Внесите свою лепту в развитие PiratBit!
    Комментировать посты могут только пользователи прошедшие не сложную регистрацию
    Показать сообщения:    

    Шпион через торрент
    Скачать бесплатно Шпион
    Шпион скачать торрент
    Шпион смотреть онлайн
    Cкачать фильм Шпион бесплатно
    Шпион скачать торрент в хорошем качестве
    Шпион смотреть онлайн бесплатно в хорошем качестве


    Вы не можете начинать темы
    Вы не можете отвечать на сообщения
    Вы не можете редактировать свои сообщения
    Вы не можете удалять свои сообщения
    Вы не можете голосовать в опросах
    Вы не можете прикреплять файлы к сообщениям
    Вы можете скачивать файлы