1 сезон

3 сезон

iTunes

1

Line

MVO

iTunes

13

1 сезон

RePack

30

Deluxe

pack

Лицензия

ВАЖНО

ИГРА 18+

pack

RePack

MK11

RePack

jed

RePack

fifa19

RePack

RDR2

RePack

NEED FOR SPEED™ PAYBACK

4 сезон

9 сезон

Бесстыжие 9 сезон

Все сериалы

все сериалы на PB.wtf

RePack

FAR CRY 5

Anonymous, добрый вечер, мы катастрофически не успеваем собрать деньги на оплату серверов, помогите нам пожалуйста 5,10,15р., для нас важна любая помощь . В качестве благодарности мы отключим Вам всю рекламу на сайте (укажите свой ник в строку Ваше имя)!

×
  
Magnet ссылка

Шнайдер против Бакса / Schneider vs. Bax (Алекс ван Вармердам) [2015, триллер, комедия, WEB-DLRip-AVC, Дубляж] iTunes] R.G.Resident pb.wtf

Шнайдер против Бакса через торрент pb.wtf

Размер: 2.17 GB | Добавлен: 5 лет 7 мес. назад | Торрент скачан:458 раз
Скачать  

05-12-2015 15:02 Шнайдер против Бакса Скачать торрент  

Шнайдер против Бакса / Schneider vs. Bax
««Schneider, a hit-man, is given a task: before the night has passed he must kill the writer Ramon Bax. It seems to be an easy task....»»


Год выпуска: 2015
Страна: Нидерланды
Жанр: триллер, комедия
Продолжительность: 01:36:23
Перевод: Дубляж - [Лицензия / iTunes]
Режиссер: Алекс ван Вармердам
В ролях:

Том Де Виспеларе (Schneider), Алекс ван Вармердам (Ramon Bax), Мария Краакман (Francisca), Гене Бервутс (Mertens), Аннет Мальэрб (Gina), Пьер Бокма (Bolek), Анри Гарсен (Gerard), Лоэс Хаверкорт (Lucy), Ева ван де Вийдевен (Nadine), Ali Zijlstra (Loetje), Майк Реус (Supervisor), Барт Хардер (Jules)
Описание:
Шнайдер - наемный убийца-профессионал. Даже в день своего рождения он обязан подчиниться заказчику, некоему Мертенсу, и ликвидировать Рамона Бакса, писателя, живущего в домишке на берегу озера, окруженного болотами. Киллеру приходится спешить - ведь дома его ждет праздничный обед в кругу семьи. Однако в этот день все идет наперекосяк. Непредвиденные обстоятельства то и дело возникают на пути Шнайдера, отодвигая исход операции. Он нервничает и не догадывается, что его жертва на самом деле тоже профессиональный гангстер, у которого он, Шнайдер, на мушке...
Мировая премьера: 28 мая 2015

Качество: WEB-DLRip-AVC Rip by schultz R.G.Resident
Формат: MKV
Видео: AVC, 1152x480 (2.40:1), 2841 kbps, 24 fps, 0,214 bpp
Аудио: AC3 / 5.1 / 48 kHz / 384 kbps / 16 bit

Код:

x264 [info]: frame I:1076  Avg QP:15.64  size: 66881
x264 [info]: frame P:38207 Avg QP:17.53  size: 28866
x264 [info]: frame B:99524 Avg QP:19.14  size:  8520
General
Unique ID                                : 199952953467601476057249594232945979447 (0x966D89BDFC2DA0C9A7746F2E907F3037)
Complete name                            : D:\download\ShNA1Der.vs.BakS.2O15.  WEB-DLRip-AVC by schultz R.G.Resident.mkv
Format                                   : Matroska
Format version                           : Version 2
File size                                : 2.17 GiB
Duration                                 : 1h 36mn
Overall bit rate                         : 3 226 Kbps
Encoded date                             : UTC 2015-12-05 10:55:41
Writing application                      : mkvmerge v6.1.0 ('Old Devil') built on Mar  4 2013 09:10:42
Writing library                          : libebml v1.3.0 + libmatroska v1.4.0

Video
ID                                       : 1
Format                                   : AVC
Format/Info                              : Advanced Video Codec
Format profile                           : High@L4.1
Format settings, CABAC                   : Yes
Format settings, ReFrames                : 4 frames
Codec ID                                 : V_MPEG4/ISO/AVC
Duration                                 : 1h 36mn
Bit rate                                 : 2 841 Kbps
Width                                    : 1 152 pixels
Height                                   : 480 pixels
Display aspect ratio                     : 2.40:1
Frame rate                               : 24.000 fps
Color space                              : YUV
Chroma subsampling                       : 4:2:0
Bit depth                                : 8 bits
Scan type                                : Progressive
Bits/(Pixel*Frame)                       : 0.214
Stream size                              : 1.87 GiB (86%)
Writing library                          : x264 core 130 r2273 b3065e6
Encoding settings                        : cabac=1 / ref=4 / deblock=1:-2:-2 / analyse=0x3:0x113 / me=umh / subme=9 / psy=1 / psy_rd=1.00:0.00 / mixed_ref=1 / me_range=32 / chroma_me=1 / trellis=2 / 8x8dct=1 / cqm=0 / deadzone=21,11 / fast_pskip=0 / chroma_qp_offset=-2 / threads=12 / lookahead_threads=2 / sliced_threads=0 / nr=0 / decimate=0 / interlaced=0 / bluray_compat=0 / constrained_intra=0 / bframes=8 / b_pyramid=2 / b_adapt=2 / b_bias=0 / direct=3 / weightb=1 / open_gop=0 / weightp=2 / keyint=250 / keyint_min=23 / scenecut=40 / intra_refresh=0 / rc_lookahead=60 / rc=2pass / mbtree=0 / bitrate=2841 / ratetol=1.0 / qcomp=0.60 / qpmin=0 / qpmax=69 / qpstep=4 / cplxblur=20.0 / qblur=0.5 / vbv_maxrate=14000 / vbv_bufsize=14000 / nal_hrd=none / ip_ratio=1.40 / pb_ratio=1.30 / aq=1:0.80
Default                                  : Yes
Forced                                   : No

Audio
ID                                       : 2
Format                                   : AC-3
Format/Info                              : Audio Coding 3
Mode extension                           : CM (complete main)
Codec ID                                 : A_AC3
Duration                                 : 1h 36mn
Bit rate mode                            : Constant
Bit rate                                 : 384 Kbps
Channel(s)                               : 6 channels
Channel positions                        : Front: L C R, Side: L R, LFE
Sampling rate                            : 48.0 KHz
Bit depth                                : 16 bits
Compression mode                         : Lossy
Stream size                              : 265 MiB (12%)
Default                                  : Yes
Forced                                   : No


pb.wtf



Скачать Шнайдер против Бакса через торрент https://pic1.kartinco.top/images/10/4ifyo.jpg Скачать фильм Шнайдер против Бакса через торрент бесплантно в хорошем качестве Описание: Шнайдер - наемный убийца-профессионал. Даже в день своего рождения он обязан подчиниться заказчику, некоему Мертенсу, и ... 10 10 6
Info! Золотая раздача, скачанное не засчитывается.
Торрент: Зарегистрирован [2015-12-05 15:02] · скачан: 458 раз
Статус: √ проверено
Размер: 2.17 GB
Как cкачать? Как скачать Шнайдер против Бакса через торрент | UTorrent



Последний раз редактировалось: schultz (2015-12-05 18:08), всего редактировалось 1 раз

28-11-2019 20:33  

Отключить всю рекламу на сайте

05-12-2015 16:16 Шнайдер против Бакса Скачать торрент  

Хор.кино!pb.wtf



05-12-2015 16:37 Шнайдер против Бакса Скачать торрент  

Бред,но очень смешноpb.wtf



06-12-2015 05:18 Шнайдер против Бакса Скачать торрент  

Хор.смешной бред?pb.wtf



    Дорогой пользователь! Огромная просьба, поблагодарите релизера, оцените раздачу и оставьте свои комментарий, если Вы скачали Шнайдер против Бакса через торрент бесплатно! Внесите свою лепту в развитие PiratBit!
    Комментировать посты могут только пользователи прошедшие не сложную регистрацию
    Показать сообщения:    

    Шнайдер против Бакса через торрент
    Скачать бесплатно Шнайдер против Бакса
    Шнайдер против Бакса скачать торрент
    Шнайдер против Бакса смотреть онлайн
    Cкачать фильм Шнайдер против Бакса бесплатно
    Шнайдер против Бакса скачать торрент в хорошем качестве
    Шнайдер против Бакса смотреть онлайн бесплатно в хорошем качестве


    Вы не можете начинать темы
    Вы не можете отвечать на сообщения
    Вы не можете редактировать свои сообщения
    Вы не можете удалять свои сообщения
    Вы не можете голосовать в опросах
    Вы не можете прикреплять файлы к сообщениям
    Вы можете скачивать файлы