Ссылка на приватное зеркало нашего сайта всего за 1$. Внимание количество ограничено!!!

2 сезон

iTunes

1 сезон

1

2 сезон

2 сезон

iTunes

1 сезон

RePack

30

Ultimate

ВАЖНО

ИГРА 18+

pack

RePack

MK11
pack

Забери бонус

RePack

jed

!!Акция!!

Alien_Rage

RePack

fifa19

RePack

Assassins Creed: Odyssey

RePack

NEED FOR SPEED™ PAYBACK

4 сезон

9 сезон

Бесстыжие 9 сезон

Все сериалы

все сериалы на PB.wtf

RePack

FAR CRY 5
  

Полтергейст - Наследие / Буйство духов / Poltergeist - The Legacy / Сезон: 1-4 из 4 / Серии: 1-88 из 88 (Ричард Бартон Льюис / Richard Barton Lewis) [1996 - 1999, фантастика, мистика, DVDRip] MVO (AXN Sci-Fi) pb.wtf

Полтергейст - Наследие через торрент pb.wtf

Размер: 53.3 GB | Добавлен: 4 года 11 мес. назад | Торрент скачан:7 раз
Скачать  

05-12-2015 18:37 Полтергейст - Наследие Скачать торрент  

Полтергейст: Наследие / Poltergeist: The Legacy

Год выпуска: 1996-1999
Страна: Канада, США
Жанр: ужасы, фантастика

Продолжительность: ~ 00:45:00 серия.
Перевод: Профессиональный (многоголосый) - AXN Sci-Fi
В ролях: Дерек де Линт (Derek Rayne, Ph.D.), Мартин Камминс (Nick Boyle), Робби Чонг (Alexandra Moreau), Хелен Шейвер (Rachel Corrigan, MD), Кристин Леман (Kristin Adams), Александра Пурвис (Katherine «Kat» Corrigan, хроника), Патрик Фицджералд (Father Philip Callaghan), Дэниел Дж. Траванти (William Sloan), Ким Рестелл (Dr. Frances Carlton), Коллин Реннисон (Miranda), Саймон МакКоркиндейл (Reed Horton), Сара Стрэйндж (Justine, хроника)
Описание:
Более трех тысяч лет на Земле существует тайное общество, которое объединяет людей, в чью миссию входит изучение и разрешение проблем паранормальных явлений и защита человечества от сверхъестественного зла. Это международное общество состоит из «домов», расположенных в разных странах мира. Каждым Домом управляет «Наставник» - «precept», он носит на руке кольцо, которое определяет его место в «Наследии». Члены каждого Дома, объединены единой целью: изучение сверхъестественных явлений и борьба с проявлением любых темных сил. «Наследие» было основано в Англии, где теперь находится верховный Дом.
В сериале «Полтергейст: Наследие» внимание сфокусировано на деятельности сан-францисского дома «Наследия» (SF Legacy House), которым руководит «Наставник» Дерек Рейн. Сан-францисский Дом располагается в замке на острове Эйнджел (Angel Island) в заливе, куда попасть можно только с помощью парома или вертолета. Замок является собственностью Дерека Рейна.
Дом существует под видом филантропической организации под названием «Фонд «Луна», председателем которой также является Дерек Рейн. Фонд «Луна» был основан отцом Дерека - Уинстоном Рейном. В деятельность Фонда входит поиск и изучение древних предметов искусства и рукописей. Членами Фонда и сан-францисского дома «Наследия», кроме Дерека Рейна, являются Рейчел Корриган, отец Филип Кэллахен, Александра Моро и Ник Бойл.
Рейтинг:

MPAA: R - Лицам до 17 лет обязательно присутствие взрослого
Качество: DVDRip
Формат: AVI
Видео кодек: XviD
Аудио кодек: MP3
Видео: XviD, 704x400 (16:9), 1800 kbps, 25 fps, 0,256 bpp
Аудио: MP3, 48 kHz, 2 ch, 192 kbps

Код:

General
Complete name                            : C:\Users\tut\Desktop\закаченое\Poltergeist The Legacy\Season_01\s01e01-02_The.Fifth.Sepulcher.avi
Format                                   : AVI
Format/Info                              : Audio Video Interleave
File size                                : 1.16 GiB
Duration                                 : 1h 22mn
Overall bit rate                         : 2 002 Kbps
Writing application                      : VirtualDubMod 1.5.10.3 | www.virtualdub-fr.org || (build 2550/release)
Writing library                          : VirtualDubMod build 2550/release

Video
ID                                       : 0
Format                                   : MPEG-4 Visual
Format profile                           : Advanced Simple@L5
Format settings, BVOP                    : 1
Format settings, QPel                    : No
Format settings, GMC                     : No warppoints
Format settings, Matrix                  : Custom
Codec ID                                 : XVID
Codec ID/Hint                            : XviD
Duration                                 : 1h 22mn
Bit rate                                 : 1 800 Kbps
Width                                    : 704 pixels
Height                                   : 400 pixels
Display aspect ratio                     : 16:9
Frame rate                               : 25.000 fps
Color space                              : YUV
Chroma subsampling                       : 4:2:0
Bit depth                                : 8 bits
Scan type                                : Progressive
Compression mode                         : Lossy
Bits/(Pixel*Frame)                       : 0.256
Stream size                              : 1.04 GiB (90%)
Writing library                          : XviD 73

Audio
ID                                       : 1
Format                                   : MPEG Audio
Format version                           : Version 1
Format profile                           : Layer 3
Mode                                     : Joint stereo
Codec ID                                 : 55
Codec ID/Hint                            : MP3
Duration                                 : 1h 22mn
Bit rate mode                            : Constant
Bit rate                                 : 192 Kbps
Channel(s)                               : 2 channels
Sampling rate                            : 48.0 KHz
Compression mode                         : Lossy
Stream size                              : 114 MiB (10%)
Alignment                                : Aligned on interleaves
Interleave, duration                     : 40 ms (1.00 video frame)
Interleave, preload duration             : 504 ms

pb.wtf



Скачать Полтергейст - Наследие через торрент http://i6.imageban.ru/out/2015/12/05/74596ba8ea86ed6a730e8dbe3f50662c.jpg Скачать фильм Полтергейст - Наследие через торрент бесплантно в хорошем качестве Описание: Более трех тысяч лет на Земле существует тайное общество, которое объединяет людей, в чью миссию входит изучение и разрешение ... 10 10 4
Info! Золотая раздача, скачанное не засчитывается.
Торрент: Зарегистрирован [2015-12-05 18:37] · скачан: 7 раз
Статус: √ проверено
Размер: 53.3 GB
Как cкачать? Как скачать Полтергейст - Наследие через торрент | qTorrent

28-11-2019 20:33  

Отключить всю рекламу на сайте

05-12-2015 18:52 Полтергейст - Наследие Скачать торрент  

Когда-то был супер сериал.pb.wtf



    Дорогой пользователь! Огромная просьба, поблагодарите релизера, оцените раздачу и оставьте свои комментарий, если Вы скачали Полтергейст - Наследие через торрент бесплатно! Внесите свою лепту в развитие PiratBit!
    Комментировать посты могут только пользователи прошедшие не сложную регистрацию
    Показать сообщения:    

    Полтергейст - Наследие через торрент
    Скачать бесплатно Полтергейст - Наследие
    Полтергейст - Наследие скачать торрент
    Полтергейст - Наследие смотреть онлайн
    Cкачать фильм Полтергейст - Наследие бесплатно
    Полтергейст - Наследие скачать торрент в хорошем качестве
    Полтергейст - Наследие смотреть онлайн бесплатно в хорошем качестве


    Вы не можете начинать темы
    Вы не можете отвечать на сообщения
    Вы не можете редактировать свои сообщения
    Вы не можете удалять свои сообщения
    Вы не можете голосовать в опросах
    Вы не можете прикреплять файлы к сообщениям
    Вы можете скачивать файлы