Ссылка на приватное зеркало нашего сайта всего за 1$. Внимание количество ограничено!!!

2 сезон

iTunes

1 сезон

1

2 сезон

2 сезон

iTunes

1 сезон

RePack

30

Ultimate

ВАЖНО

ИГРА 18+

pack

RePack

MK11
pack

Забери бонус

RePack

jed

!!Акция!!

Alien_Rage

RePack

fifa19

RePack

Assassins Creed: Odyssey

RePack

NEED FOR SPEED™ PAYBACK

4 сезон

9 сезон

Бесстыжие 9 сезон

Все сериалы

все сериалы на PB.wtf

RePack

FAR CRY 5
  

Игрок / The Player / Сезон: 1 / Серии 1-9 (9 )(Бхарат Наллури ) [2015, боевик, триллер, драма, WEB-DL 720р] MVO (AlexFilm) pb.wtf

Игрок через торрент pb.wtf

Размер: 12.64 GB | Добавлен: 4 года 11 мес. назад | Торрент скачан:75 раз
Скачать  

06-12-2015 05:29 Игрок Скачать торрент  

Игрок / The Player«Never bet against him»

Год выпуска: 2015
Страна: США
Жанр: боевик, триллер, драма
Продолжительность: 00:42:52
Перевод: Профессиональный (многоголосый закадровый) (AlexFilm)

Режиссер: Бхарат Наллури / Bharat Nalluri
Сценарий: Джон Роджерс / John Rogers
Продюсер: Дженн Корт, Джон Дэвис, Джон Фокс, Бхарат Наллури, Джон Роджерс / Jenn Court, John Davis, John Fox, Bharat Nalluri, John Rogers
Оператор: Натаниель Гудман / Nathaniel Goodman
Композитор: Доминик Льюис / Dominic Lewis
Художник: Рендал Р. Гровс, Гай Барнс, Даг Холл, Венди Озолс-Барнс / Randal R. Groves, Guy Barnes, Doug Hall, Wendy Ozols-Barnes
Монтаж: Найвен Хоуи / Niven Howie

В ролях: Уэсли Снайпс / Wesley Snipes (Johnson), Филип Уинчестер / Philip Winchester (Alex), Чарити Уэйкфилд / Charity Wakefield (Cassandra), Дэймон Гаптон / Damon Gupton (Cal Brown), Jade Bender (Shada Raquib), Тони Френч / Toni French (Driver), Dion Mucciacito (Tomas Edribali), Пануват Энтони Нанакорнпаном / Panuvat Anthony Nanakornpanom (Bud)


Описание: Сюжет расскажет о бывшем офицере разведки, который становится специалистом по вопросам безопасности в Лас-Вегасе.
Премьера (мир): 24 сентября 2015

Качество: WEB-DL 720p
Формат: MKV
Видео кодек: AVC
Аудио кодеk: AC3
Видео: 1280x718 (16:9), 23.976 fps, AVC, 3 869 Kbps
Аудио:
Аудио #1: AC3, 384 Kbps, 48.0 KHz, 6 ch - Rus
Аудио #2: AC3, 384 Kbps, 48.0 KHz, 6 ch - Eng

Код:

General
Unique ID                                : 197008093121407848726284071353977212212 (0x943660EACF560FF1A25212A037450D34)
Complete name                            : The.Player.s01e01.WEB-DL.720p.Rus.Eng.AlexFilm.mkv
Format                                   : Matroska
Format version                           : Version 4 / Version 2
File size                                : 1.42 GiB
Duration                                 : 42mn 52s
Overall bit rate                         : 4 731 Kbps
Movie name                               : The Player. 1x01 @ AlexFilm
Encoded date                             : UTC 2015-10-04 08:58:13
Writing application                      : mkvmerge v8.1.0 ('Psychedelic Postcard') 64bit
Writing library                          : libebml v1.3.1 + libmatroska v1.4.2

Video
ID                                       : 1
Format                                   : AVC
Format/Info                              : Advanced Video Codec
Format profile                           : High@L3.1
Format settings, CABAC                   : No
Format settings, ReFrames                : 2 frames
Codec ID                                 : V_MPEG4/ISO/AVC
Duration                                 : 42mn 52s
Bit rate                                 : 3 869 Kbps
Width                                    : 1 280 pixels
Height                                   : 718 pixels
Display aspect ratio                     : 16:9
Frame rate mode                          : Constant
Frame rate                               : 23.976 fps
Color space                              : YUV
Chroma subsampling                       : 4:2:0
Bit depth                                : 8 bits
Scan type                                : Progressive
Bits/(Pixel*Frame)                       : 0.176
Stream size                              : 1.16 GiB (82%)
Language                                 : English
Default                                  : Yes
Forced                                   : No
Color primaries                          : BT.709
Transfer characteristics                 : BT.709
Matrix coefficients                      : BT.709

Audio #1
ID                                       : 2
Format                                   : AC-3
Format/Info                              : Audio Coding 3
Mode extension                           : CM (complete main)
Format settings, Endianness              : Big
Codec ID                                 : A_AC3
Duration                                 : 42mn 52s
Bit rate mode                            : Constant
Bit rate                                 : 384 Kbps
Channel(s)                               : 6 channels
Channel positions                        : Front: L C R, Side: L R, LFE
Sampling rate                            : 48.0 KHz
Bit depth                                : 16 bits
Compression mode                         : Lossy
Stream size                              : 118 MiB (8%)
Title                                    : DD5.1 AlexFilm
Language                                 : Russian
Default                                  : Yes
Forced                                   : No

Audio #2
ID                                       : 3
Format                                   : AC-3
Format/Info                              : Audio Coding 3
Mode extension                           : CM (complete main)
Format settings, Endianness              : Big
Codec ID                                 : A_AC3
Duration                                 : 42mn 52s
Bit rate mode                            : Constant
Bit rate                                 : 384 Kbps
Channel(s)                               : 6 channels
Channel positions                        : Front: L C R, Side: L R, LFE
Sampling rate                            : 48.0 KHz
Bit depth                                : 16 bits
Compression mode                         : Lossy
Stream size                              : 118 MiB (8%)
Title                                    : DD5.1 Original
Language                                 : English
Default                                  : No
Forced                                   : No

Сезон 1
1.01 Пилот (24.09.2015)
1.02 Ante Up (01.10.2015)
1.03 L.A. Takedown (08.10.2015)
1.04 The Big Blind (15.10.2015)
1.05 House Rules (22.10.2015)
1.06 The Norseman (29.10.2015)
1.07 A House Is Not a Home (05.11.2015)
1.08 Downtown Odds (12.11.2015)
1.09 Tell (19.11.2015)
pb.wtf



Скачать Игрок через торрент http://i67.fastpic.ru/big/2015/1206/5b/91fd465d69f73b18cdc4da0d077c655b.png Скачать фильм Игрок через торрент бесплантно в хорошем качестве Описание: Сюжет расскажет о бывшем офицере разведки, который становится специалистом по вопросам безопасности в Лас-Вегасе.Премьера (мир): ... 9 10 3
Торрент: Зарегистрирован [2015-12-06 05:29] · скачан: 75 раз
Статус: √ проверено
Размер: 12.64 GB
Как cкачать? Как скачать Игрок через торрент | qTorrent

% Раздел Тема Автор DL S | L
Зарубежные сериалы [ 15.55 GB ] Игрок / The Player / Сезон: 1 / Серии 1-9 [2015 WEB-DL 1080р] MVO кэп Скачать
1 | 0
Зарубежные сериалы [ 8.42 GB ] Игрок / The Player/ Сезон: 1 / Серии 1-9 из 9 [2015 WEB-DLRip-AVC MVO] [BaibaKo] GEKADOL Скачать
1 | 0
Зарубежные сериалы [ 8.39 GB ] Игрок / The Player/ Сезон: 1 / Серии 1-9 из 9 [2015 WEB-DLRip-AVC MVO] [NewStudio] GEKADOL Скачать
1 | 0

28-11-2019 20:33  

Отключить всю рекламу на сайте

06-12-2015 06:28 Игрок Скачать торрент  

Фильм про казино?pb.wtf



    Дорогой пользователь! Огромная просьба, поблагодарите релизера, оцените раздачу и оставьте свои комментарий, если Вы скачали Игрок через торрент бесплатно! Внесите свою лепту в развитие PiratBit!
    Комментировать посты могут только пользователи прошедшие не сложную регистрацию
    Показать сообщения:    

    Игрок через торрент
    Скачать бесплатно Игрок
    Игрок скачать торрент
    Игрок смотреть онлайн
    Cкачать фильм Игрок бесплатно
    Игрок скачать торрент в хорошем качестве
    Игрок смотреть онлайн бесплатно в хорошем качестве


    Вы не можете начинать темы
    Вы не можете отвечать на сообщения
    Вы не можете редактировать свои сообщения
    Вы не можете удалять свои сообщения
    Вы не можете голосовать в опросах
    Вы не можете прикреплять файлы к сообщениям
    Вы можете скачивать файлы