>

7.4

iTunes

7.4

2 сезон

9.4

1 сезон

1

7.4

2 сезон

7.2

iTunes

6.0

MVO

13

6.1

iTunes

8.3

Пиратка

30

ULTIMATE

pack

9.9

Лицензия

ВАЖНО

ИГРА 18+

pack

7.3

RePack

MK11

7.7

RePack

jed

7.8

RePack

fifa19

8.5

RePack

RDR2

RePack

NEED FOR SPEED™ PAYBACK

1 сезон

9 сезон

Бесстыжие 9 сезон

Все сериалы

все сериалы на PB.wtf

RePack

FAR CRY 5

Anonymous, доброй ночи, мы катастрофически не успеваем собрать деньги на оплату серверов, помогите нам пожалуйста 5,10,15р., для нас важна любая помощь . В качестве благодарности мы отключим Вам всю рекламу на сайте (укажите свой ник в строку Ваше имя)!

×
  
Magnet ссылка

Красивые люди / Beautiful People (Brini Amerigo) [2014, ужасы, DVDRip, AVO] [Ворон] pb.wtf

Красивые люди через торрент pb.wtf

Размер: 1.37 GB | Добавлен: 6 лет 1 мес. назад | Торрент скачан:61 раз
Смотреть онлайн Красивые люди | Скачать    Ребята, помогите собрать деньги на оплату серверов!!!

06-12-2015 10:09 Красивые люди Скачать торрент  


Красивые люди / Beautiful People
««Who is the real monster?»»

ИНФОРМАЦИЯ:
Год выпуска:2014
Страна: Италия
Жанр: ужасы
Продолжительность: 01:12:28
Перевод: Авторский (одноголосый) Ворон
Режиссер: Brini Amerigo

В Ролях:


Дэнни Катлер (Nibbio), Алекс Луккези (Testamento), Алекс Саузерн (Brett), Кейт Мари Дэвис (Elena Pontecorvo), Дэвид Уайт (John Pontecorvo), Джеймс Уайлз (Paul Pontecorvo), Ванина Марини (Anna Hicks), Александра Антониоли (Sara Hicks), Этторе Николетти (Luca Hicks), Tania Caceres Alessi (Subject #2), Andrea Azzali (Walking Dead #1), Enrico Galli (Felipe Soares)

Описание:
«Кто же настоящий монстр?»
В лесном особняке, мирную жизнь доктора и его семьи нарушают трое людейв в масках. Начинается бесконечная ночь террора и насилия, происходит осознание: в дом вторглись бандиты. Страх выявляет истинную природу каждого персонажа, заставляя их задуматься... "Кто является реальным монстром?"

  • Мировая премьера:18 июля 2014

    ТЕХ.ДАННЫЕ:
    Качество: DVDRip
    Формат: AVI
    Видео: xvid, 720x304 (2.35:1), 2262 kbps, 25 fps, 0,413 bpp
    Аудио: AC3 / 2.0 / 48 kHz / 320 kbps / 16 bit
    Сэмпл

    General
    Complete name : D:\Торенты\Beautiful People.2014.DVDRip.avi
    Format : AVI
    Format/Info : Audio Video Interleave
    File size : 1.37 GiB
    Duration : 1h 12mn
    Overall bit rate : 2 698 Kbps
    Writing application : XviD4PSP 6.0 / 54.29.105

    Video
    ID : 0
    Format : xvid
    Codec ID : xvid
    Duration : 1h 12mn
    Bit rate : 2 263 Kbps
    Width : 720 pixels
    Height : 304 pixels
    Display aspect ratio : 2.35:1
    Frame rate : 25.000 fps
    Bits/(Pixel*Frame) : 0.413
    Stream size : 1.15 GiB (84%)

    Audio
    ID : 1
    Format : AC-3
    Format/Info : Audio Coding 3
    Mode extension : CM (complete main)
    Codec ID : 2000
    Duration : 1h 12mn
    Bit rate mode : Constant
    Bit rate : 320 Kbps
    Channel(s) : 2 channels
    Channel positions : Front: L R
    Sampling rate : 48.0 KHz
    Bit depth : 16 bits
    Compression mode : Lossy
    Stream size : 166 MiB (12%)
    Alignment : Aligned on interleaves
    Скриншоты:

    © Оформление by .::Ворон::.
    pb.wtf



  • Скачать Красивые люди через торрент https://pic1.kartinco.top/images/61/ordi9.jpg Скачать, смотреть онлайн Красивые люди бесплантно в хорошем качестве Описание: «Кто же настоящий монстр?»В лесном особняке, мирную жизнь доктора и его семьи нарушают трое людейв в масках. Начинается ... 8.5 10 6
    Торрент: Зарегистрирован [2015-12-06 10:14] · скачан: 61 раз
    Статус: √ проверено
    Размер: 1.37 GB
    Как cкачать? Как скачать Красивые люди через торрент | UTorrent

    28-11-2019 20:33  

    Отключить всю рекламу на сайте

      Дорогой пользователь! Огромная просьба, поблагодарите релизера, оцените раздачу и оставьте свои комментарий, если Вы скачали Красивые люди через торрент бесплатно!
      Комментировать посты могут только пользователи прошедшие не сложную регистрацию
      Показать сообщения:    

      Красивые люди через торрент
      Скачать бесплатно Красивые люди
      Красивые люди скачать торрент
      Красивые люди смотреть онлайн
      Cкачать фильм Красивые люди бесплатно
      Красивые люди скачать торрент в хорошем качестве
      Красивые люди смотреть онлайн бесплатно в хорошем качестве


      Вы не можете начинать темы
      Вы не можете отвечать на сообщения
      Вы не можете редактировать свои сообщения
      Вы не можете удалять свои сообщения
      Вы не можете голосовать в опросах
      Вы не можете прикреплять файлы к сообщениям
      Вы можете скачивать файлы