Ссылка на приватное зеркало нашего сайта всего за 1$. Внимание количество ограничено!!!

2 сезон

iTunes

1 сезон

1

iTunes

iTunes

iTunes

1 сезон

RePack

30

ИГРА 18+

pack

ВАЖНО

!!Акция!!

Alien_RageХит недели

RePack

MK11
pack

Забери бонус

RePack

jed

!!Акция!!

Alien_Rage

RePack

fifa19

RePack

Assassins Creed: Odyssey

RePack

NEED FOR SPEED™ PAYBACK

4 сезон

9 сезон

Бесстыжие 9 сезон

Все сериалы

все сериалы на PB.wtf

RePack

FAR CRY 5
  

Милая Фрэнсис / Frances Ha (Ноа Баумбах) [2012, драма, комедия, BDRip 720p by msltel] DUB, AVO, VO pb.wtf

Милая Фрэнсис через торрент pb.wtf

Размер: 3.81 GB | Добавлен: 4 года 10 мес. назад | Торрент скачан:6 раз
Скачать  

06-12-2015 11:56 Милая Фрэнсис Скачать торрент  

Название: Милая Фрэнсис
Оригинальное название: Frances Ha
Год выпуска: 2012
Страна: США
Жанр: драма, комедия
Продолжительность: 01:26:04
Перевод: Дублированный, авторский, любительский одноголосый

Режиссёр: Ноа Баумбах

В ролях: Грета Гервиг, Мики Самнер, Майкл Эспер, Адам Драйвер, Майкл Зеген, Шарлотта д’Амбуаз, Грэйс Гаммер, Дайва Дюпри, Изабель МакНалли, Джастин Люпе

Описание: Фрэнсис живёт в Нью-Йорке, но у нее, по сути, нет дома. Фрэнсис работает в танцевальной труппе, но она, признаться, совсем не танцор. У Фрэнсис есть лучшая подруга Софи, но теперь они почти не общаются, если честно. Фрэнсис живёт своими мечтами, которые с каждым днём становятся всё более несбыточными. Фрэнсис хочет намного больше, чем может себе позволить, но она всё равно проживает жизнь с леёкостью, беспечностью и изяществом...



Качество: BDRip 720p Сравнение с исходником
Формат: MKV
Видео: MPEG-4 AVC, 4680 Кбит/с, 1280x690, 23,976 кадра/с
Аудио 1: русский, AC3, 448 kbps, 6 ch, 48 kHz [дублированный]
Аудио 2: русский, AC3, 448 kbps, 6 ch, 48 kHz [авторский, Юрий Сербин]
Аудио 3: русский, AC3, 192 kbps, 2 ch, 48 kHz [любительский одноголосый, datynet]
Аудио 4: английский, AC3, 448 kbps, 6 ch, 48 kHz [оригинал]
Субтитры 1: русские
Субтитры 2: английские (для слабослышащих)
Общее
Уникальный идентификатор : 201599731606756799340895951873113303672 (0x97AAB22C482B103D8C4B146ED6F3AA78)
Полное имя : D:\Video\Милая Фрэнсис.2012.BDRip.720p.mkv
Формат : Matroska
Версия формата : Version 4 / Version 2
Размер файла : 3,81 Гбайт
Продолжительность : 1 ч. 26 м.
Общий поток : 6342 Кбит/сек
Дата кодирования : UTC 2015-12-06 10:27:51
Программа кодирования : mkvmerge v8.2.0 ('World of Adventure') 64bit
Библиотека кодирования : libebml v1.3.1 + libmatroska v1.4.2
DURATION : 01:26:04.224000000
NUMBER_OF_FRAMES : 161382
NUMBER_OF_BYTES : 289196544
_STATISTICS_WRITING_APP : mkvmerge v8.2.0 ('World of Adventure') 64bit
_STATISTICS_WRITING_DATE_UTC : 2015-12-06 10:27:51
_STATISTICS_TAGS : BPS DURATION NUMBER_OF_FRAMES NUMBER_OF_BYTES

Видео
Идентификатор : 1
Формат : AVC
Формат/Информация : Advanced Video Codec
Профиль формата : High@L4.1
Параметр CABAC формата : Да
Параметр ReFrames формата : 9 кадров
Идентификатор кодека : V_MPEG4/ISO/AVC
Продолжительность : 1 ч. 26 м.
Битрейт : 4680 Кбит/сек
Ширина : 1280 пикселей
Высота : 690 пикселей
Соотношение сторон : 1,85:1
Режим частоты кадров : Постоянный
Частота кадров : 23,976 кадра/сек
Цветовое пространство : YUV
Субдискретизация насыщенности : 4:2:0
Битовая глубина : 8 бит
Тип развёртки : Прогрессивная
Бит/(Пиксели*Кадры) : 0.221
Размер потока : 2,81 Гбайт (74%)
Библиотека кодирования : x264 core 146 r2538 121396c
Настройки программы : cabac=1 / ref=9 / deblock=1:-1:-1 / analyse=0x3:0x113 / me=umh / subme=10 / psy=1 / psy_rd=1.00:0.15 / mixed_ref=1 / me_range=32 / chroma_me=1 / trellis=2 / 8x8dct=1 / cqm=0 / deadzone=21,11 / fast_pskip=1 / chroma_qp_offset=-3 / threads=6 / lookahead_threads=1 / sliced_threads=0 / nr=0 / decimate=1 / interlaced=0 / bluray_compat=0 / constrained_intra=0 / bframes=14 / b_pyramid=2 / b_adapt=2 / b_bias=0 / direct=1 / weightb=1 / open_gop=0 / weightp=2 / keyint=230 / keyint_min=23 / scenecut=40 / intra_refresh=0 / rc_lookahead=40 / rc=crf / mbtree=0 / crf=18.6 / qcomp=0.60 / qpmin=0 / qpmax=69 / qpstep=4 / vbv_maxrate=40000 / vbv_bufsize=50000 / crf_max=0.0 / nal_hrd=none / filler=0 / ip_ratio=1.40 / pb_ratio=1.30 / aq=1:1.00
Язык : English
Default : Да
Forced : Нет
DURATION : 01:26:04.201000000
NUMBER_OF_FRAMES : 123817
NUMBER_OF_BYTES : 3100984193
_STATISTICS_WRITING_APP : mkvmerge v8.2.0 ('World of Adventure') 64bit
_STATISTICS_WRITING_DATE_UTC : 2015-12-06 10:27:51
_STATISTICS_TAGS : BPS DURATION NUMBER_OF_FRAMES NUMBER_OF_BYTES

Аудио #1
Идентификатор : 2
Формат : AC-3
Формат/Информация : Audio Coding 3
Расширение режима : CM (complete main)
Параметр Endianness формата : Big
Идентификатор кодека : A_AC3
Продолжительность : 1 ч. 26 м.
Вид битрейта : Постоянный
Битрейт : 448 Кбит/сек
Каналы : 6 каналов
Расположение каналов : Front: L C R, Side: L R, LFE
Частота : 48,0 КГц
Метод сжатия : С потерями
Размер потока : 276 Мбайт (7%)
Заголовок : DUB
Язык : Russian
Default : Да
Forced : Нет

Аудио #2
Идентификатор : 3
Формат : AC-3
Формат/Информация : Audio Coding 3
Расширение режима : CM (complete main)
Параметр Endianness формата : Big
Идентификатор кодека : A_AC3
Продолжительность : 1 ч. 26 м.
Вид битрейта : Постоянный
Битрейт : 448 Кбит/сек
Каналы : 6 каналов
Расположение каналов : Front: L C R, Side: L R, LFE
Частота : 48,0 КГц
Метод сжатия : С потерями
Размер потока : 276 Мбайт (7%)
Заголовок : AVO (Юрий Сербин)
Язык : Russian
Default : Нет
Forced : Нет

Аудио #3
Идентификатор : 4
Формат : AC-3
Формат/Информация : Audio Coding 3
Расширение режима : CM (complete main)
Параметр Endianness формата : Big
Идентификатор кодека : A_AC3
Продолжительность : 1 ч. 26 м.
Вид битрейта : Постоянный
Битрейт : 192 Кбит/сек
Каналы : 2 канала
Расположение каналов : Front: L R
Частота : 48,0 КГц
Метод сжатия : С потерями
Размер потока : 118 Мбайт (3%)
Заголовок : любительский одноголосый, datynet
Язык : Russian
Default : Нет
Forced : Нет

Аудио #4
Идентификатор : 5
Формат : AC-3
Формат/Информация : Audio Coding 3
Расширение режима : CM (complete main)
Параметр Endianness формата : Big
Идентификатор кодека : A_AC3
Продолжительность : 1 ч. 26 м.
Вид битрейта : Постоянный
Битрейт : 448 Кбит/сек
Каналы : 6 каналов
Расположение каналов : Front: L C R, Side: L R, LFE
Частота : 48,0 КГц
Метод сжатия : С потерями
Размер потока : 276 Мбайт (7%)
Заголовок : Original
Язык : English
Default : Нет
Forced : Нет

Текст #1
Идентификатор : 6
Формат : UTF-8
Идентификатор кодека : S_TEXT/UTF8
Идентификатор кодека/Информация : UTF-8 Plain Text
Заголовок : русский (Егор Тесля)
Язык : Russian
Default : Нет
Forced : Нет

Текст #2
Идентификатор : 7
Формат : UTF-8
Идентификатор кодека : S_TEXT/UTF8
Идентификатор кодека/Информация : UTF-8 Plain Text
Заголовок : английский (для слабослышащих)
Default : Нет
Forced : Нет
pb.wtf



Скачать Милая Фрэнсис через торрент http://s017.radikal.ru/i415/1512/05/de06e104384c.png Скачать фильм Милая Фрэнсис через торрент бесплантно в хорошем качестве Описание: Фрэнсис живёт в Нью-Йорке, но у нее, по сути, нет дома. Фрэнсис работает в танцевальной труппе, но она, признаться, совсем не ... 10 10 1
Info! Золотая раздача, скачанное не засчитывается.
Торрент: Зарегистрирован [2015-12-06 11:56] · скачан: 6 раз
Статус: √ проверено
Размер: 3.81 GB
Как cкачать? Как скачать Милая Фрэнсис через торрент | qTorrent

% Раздел Тема Автор DL S | L
Фильмы [HD 720p, 1080p] (Хороший звук DUB, MVO) [ 9.81 GB ] Милая Фрэнсис / Frances Ha [2012 BDRip 1080p by msltel] DUB AVO VO msltel Скачать
1 | 0
Фильмы 2012 [ 2.39 GB ] Милая Фрэнсис / Frances Ha [2012 BDRip AVC by msltel] DUB AVO VO msltel Скачать
1 | 0

28-11-2019 20:33  

Отключить всю рекламу на сайте

    Дорогой пользователь! Огромная просьба, поблагодарите релизера, оцените раздачу и оставьте свои комментарий, если Вы скачали Милая Фрэнсис через торрент бесплатно! Внесите свою лепту в развитие PiratBit!
    Комментировать посты могут только пользователи прошедшие не сложную регистрацию
    Показать сообщения:    

    Милая Фрэнсис через торрент
    Скачать бесплатно Милая Фрэнсис
    Милая Фрэнсис скачать торрент
    Милая Фрэнсис смотреть онлайн
    Cкачать фильм Милая Фрэнсис бесплатно
    Милая Фрэнсис скачать торрент в хорошем качестве
    Милая Фрэнсис смотреть онлайн бесплатно в хорошем качестве


    Вы не можете начинать темы
    Вы не можете отвечать на сообщения
    Вы не можете редактировать свои сообщения
    Вы не можете удалять свои сообщения
    Вы не можете голосовать в опросах
    Вы не можете прикреплять файлы к сообщениям
    Вы можете скачивать файлы