Достать ножи: Стеклянная луковица

MVO

Добыча

Дубляж

Уэнсдэй

1 сезон

Тор

Дубляж

13 клиническая

1 сезон

Жестокая ночь

MVO

Одни из нас

1 сезон

Deluxe

pack

Рекомендуем

30

Пиратка

ВАЖНО

ВАЖНО

Ghostwire

Пиратка

jed

RePack

nioh2

RePack

RDR2

RePack

NEED FOR SPEED™ PAYBACK

RePack

скачать торрент

Кинопоиск HD

Острые козырьки 6 сезон

6 сезон

FAR CRY 6

RePack

скачать торрент

Лицензия

скачать торрент

MVO

1

1 сезон

скачать торрент

1 сезон

скачать торрент

Лицензия

  

Контакт / Contact (Роберт Земекис) [1997, фантастика, триллер, драма, BDRip-AVC от R.G.Resident] Дубляж - [Лицензия]

Контакт через торрент pb.wtf

Размер: 2.11 GB | Добавлен: 7 лет 2 мес. назад | Торрент скачан:399 раз
Смотреть онлайн | Скачать | Поддержите нас   

06-12-2015 17:43 Контакт Скачать торрент  

Контакт / Contact
««Get ready for human's biggest discovery ever!»»

Год выпуска: 1997
Страна: США
Жанр: фантастика, триллер, драма, детектив
Продолжительность: 02:29:40
Перевод: Дубляж - [Лицензия]
Режиссер: Роберт Земекис
В ролях:

Джоди Фостер (Eleanor Arroway), Мэттью МакКонахи (Palmer Joss), Том Скеррит (David Drumlin), Джеймс Вудс (Michael Kitz), Анджела Бассетт (Rachel Constantine), Уильям Фихтнер (Kent), Джон Хёрт (S.R. Hadden), Дэвид Морс (Ted Arroway), Джена Мэлоун (Young Ellie), Джейк Бьюзи (Joseph), Джеффри Блейк (Fisher), Макс Мартини (Willie)
Описание:
Радиоастроном доктор Элли Эрроуэй мечтала о звездах с детских лет, когда вместе с отцом занималась радиолюбительством и выходила на связь в эфир. Она рано потеряла родителей и думала, что они где-то далеко, в пространстве...
Мировая премьера: 11 июля 1997

MPAA: PG - Рекомендуется присутствие родителей
Качество: BDRip-AVC Rip by schultz R.G.Resident
Формат: MKV
Видео: AVC, 1152x480 (2.40:1), 1636 kbps, 23,976 fps, 0,123 bpp
Аудио: AC3 / 5.1 / 48 kHz / 384 kbps / 16 bit

Код:

x264 [info]: frame I:1452  Avg QP:15.98  size: 68258
x264 [info]: frame P:50018 Avg QP:19.44  size: 21277
x264 [info]: frame B:163856 Avg QP:22.45  size:  4088
General
Unique ID                                : 220611073130115399655226284814232695850 (0xA5F825AD9E85A407A20539FD99A3B42A)
Complete name                            : D:\download\Contact.1997.BDRip-AVC by schultz R.G.Resident.mkv
Format                                   : Matroska
Format version                           : Version 2
File size                                : 2.11 GiB
Duration                                 : 2h 29mn
Overall bit rate                         : 2 022 Kbps
Encoded date                             : UTC 2015-12-06 14:55:06
Writing application                      : mkvmerge v6.1.0 ('Old Devil') built on Mar  4 2013 09:10:42
Writing library                          : libebml v1.3.0 + libmatroska v1.4.0

Video
ID                                       : 1
Format                                   : AVC
Format/Info                              : Advanced Video Codec
Format profile                           : [email protected]
Format settings, CABAC                   : Yes
Format settings, ReFrames                : 12 frames
Codec ID                                 : V_MPEG4/ISO/AVC
Duration                                 : 2h 29mn
Bit rate                                 : 1 636 Kbps
Width                                    : 1 152 pixels
Height                                   : 480 pixels
Display aspect ratio                     : 2.40:1
Frame rate                               : 23.976 fps
Color space                              : YUV
Chroma subsampling                       : 4:2:0
Bit depth                                : 8 bits
Scan type                                : Progressive
Bits/(Pixel*Frame)                       : 0.123
Stream size                              : 1.67 GiB (79%)
Writing library                          : x264 core 130 r2273 b3065e6
Encoding settings                        : cabac=1 / ref=12 / deblock=1:-2:-2 / analyse=0x3:0x113 / me=umh / subme=11 / psy=1 / psy_rd=1.00:0.15 / mixed_ref=1 / me_range=32 / chroma_me=1 / trellis=2 / 8x8dct=1 / cqm=0 / deadzone=21,11 / fast_pskip=1 / chroma_qp_offset=-3 / threads=12 / lookahead_threads=3 / sliced_threads=0 / nr=0 / decimate=0 / interlaced=0 / bluray_compat=0 / constrained_intra=0 / bframes=12 / b_pyramid=2 / b_adapt=2 / b_bias=0 / direct=3 / weightb=1 / open_gop=0 / weightp=2 / keyint=240 / keyint_min=15 / scenecut=40 / intra_refresh=0 / rc_lookahead=40 / rc=2pass / mbtree=1 / bitrate=1636 / ratetol=1.0 / qcomp=0.60 / qpmin=0 / qpmax=69 / qpstep=4 / cplxblur=20.0 / qblur=0.5 / vbv_maxrate=17500 / vbv_bufsize=14000 / nal_hrd=none / ip_ratio=1.40 / aq=1:1.00
Default                                  : Yes
Forced                                   : No

Audio
ID                                       : 2
Format                                   : AC-3
Format/Info                              : Audio Coding 3
Mode extension                           : CM (complete main)
Codec ID                                 : A_AC3
Duration                                 : 2h 29mn
Bit rate mode                            : Constant
Bit rate                                 : 384 Kbps
Channel(s)                               : 6 channels
Channel positions                        : Front: L C R, Side: L R, LFE
Sampling rate                            : 48.0 KHz
Bit depth                                : 16 bits
Compression mode                         : Lossy
Stream size                              : 411 MiB (19%)
Default                                  : Yes
Forced                                   : No


скриншот  скриншот  скриншот  скриншот  



Скачать Контакт через торрент https://pic1.kartinco.top/images/10/qz3kk.jpg Скачать, смотреть онлайн Контакт бесплантно в хорошем качестве Описание: Радиоастроном доктор Элли Эрроуэй мечтала о звездах с детских лет, когда вместе с отцом занималась радиолюбительством и выходила ... 9.9 10 12
Info! Золотая раздача, скачанное не засчитывается.
Торрент: Зарегистрирован [2015-12-06 17:43] · скачан: 399 раз
Статус: √ проверено
Размер: 2.11 GB
Как cкачать? Как скачать Контакт через торрент | UTorrent

% Раздел Тема Автор DL S | L
Фильмы до 2000 г. [ 1.66 GB ] Контакт / Contact | | BDRip killermax2013 Скачать
1 | 0
Фильмы [HD 720p, 1080p] (Хороший звук DUB, MVO) [ 17.27 GB ] Контакт / Contact | DUB | 1080p msltel Скачать
1 | 0
Фильмы [HD 720p, 1080p] (Хороший звук DUB, MVO) [ 6.85 GB ] Контакт / Contact | DUB | 720p msltel Скачать
1 | 0
Фильмы [HD 720p, 1080p] (Хороший звук DUB, MVO) [ 14.53 GB ] Контакт / Contact | DUB | 1080p -Lexx- Скачать
1 | 0
Фильмы [HD 720p, 1080p] (Хороший звук DUB, MVO) [ 9.08 GB ] Контакт / Contact | DUB | 720p akcent Скачать
1 | 0
Фильмы до 2000 г. [ 2.9 GB ] Контакт / Contact | | BDRip кэп Скачать
1 | 0
Фильмы до 2000 г. [ 3.8 GB ] Контакт / Contact | | 720p stalonе Скачать
1 | 0

28-11-2019 20:33  


Отключить вcю реклaмy на сайте, в т.ч. и в плеере онлайн просмотра!

    Дорогой пользователь! Огромная просьба, поблагодарите релизера, оцените раздачу и оставьте свои комментарий, если Вы скачали Контакт через торрент бесплатно!!
    Комментировать посты могут только пользователи прошедшие не сложную регистрацию
    Показать сообщения:    


    Контакт через торрент
    Скачать бесплатно Контакт
    Контакт скачать торрент
    Контакт смотреть онлайн
    Cкачать фильм Контакт бесплатно
    Контакт скачать торрент в хорошем качестве
    Контакт смотреть онлайн бесплатно в хорошем качестве
    Вы не можете начинать темы
    Вы не можете отвечать на сообщения
    Вы не можете редактировать свои сообщения
    Вы не можете удалять свои сообщения
    Вы не можете голосовать в опросах
    Вы не можете прикреплять файлы к сообщениям
    Вы можете скачивать файлы
    Контакт / Contact [1997, фантастика, триллер, драма, BDRip-AVC от R.G.Resident] Дубляж - [Лицензия] смотреть онлайн, скачать торрент picoco.icu