Ссылка на приватное зеркало всего за 1$. Внимание количество ограничено!!!

iTunes

iTunes

iTunes

1

iTunes

iTunes

iTunes

iTunes

iTunes

30
pack

$ от Little Big

ВАЖНО

!!Акция!!

Alien_RageХит недели

RePack

Resident Evil 21

ИГРА 18+

pack

RePack

jed

!!Акция!!

Alien_Rage

RePack

fifa19

RePack

Assassins Creed: Odyssey

RePack

NEED FOR SPEED™ PAYBACK

4 сезон

9 сезон

Бесстыжие 9 сезон

Все сериалы

все сериалы на PB.wtf

RePack

FAR CRY 5
  

Подражатель / The Wannabe (Ник Сэндоу) [2015, триллер, драма, криминал, WEB-DL 1080p, DVO] pb.wtf

Подражатель через торрент pb.wtf

Размер: 3.22 GB | Добавлен: 4 года 7 мес. назад | Торрент скачан:93 раза
Скачать  

06-12-2015 20:18 Подражатель Скачать торрент  


Подражатель / The Wannabe


ИНФОРМАЦИЯ:
Год выпуска:2015
Страна: США
Жанр: триллер, драма, криминал, детектив
Продолжительность: 01:30:52
Перевод: Любительский (двухголосый)[Sunshine Studio]
Субтитры: английские, русские
Режиссер: Ник Сэндоу

В Ролях:


Патриция Аркетт (Rose), Дэвид Зайас, Майкл Империоли (Alphonse), Винсент Пьяцца (Thomas), Доменик Ломбардоззи (Mickey), Ник Сэндоу (Anthony), Майк Старр, Даг Э. Даг (The Twin), Ларри Юден (Assistant DA), Слэйн, Нил Хафф, Адриана ДеМео (Annie)

Описание:
Действие фильма происходит в 1992 году в Нью-Йорке. Мелкий жулик Томас Греко – истинный фанат мафии и классических гангстерских фильмов. Он пытается найти способ, благодаря которому один из его героев, босс мафии Джон Готти, судимый за многочисленные преступления в федеральном суде, может быть оправдан. В эпоху, когда большинство членов банд носят спортивные костюмы, Томас старается выглядеть как парни из старых фильмов. Чем, вероятно, и привлекает внимание Роуз, пожилой женщины, в которой находит единомышленницу.

  • Мировая премьера:17 апреля 2015

    ТЕХ.ДАННЫЕ:
    Качество: WEB-DL 1080p
    Формат: MKV
    Видео: AVC, 1912x794 (2.40:1), 4390 kbps, 23,976 fps, 0,121 bpp
    Аудио №1: русский / AC3 / 2.0 / 48 kHz / 192 kbps / 16 bit ||
    Аудио №2: английский / AC3 / 5.1 / 48 kHz / 384 kbps / 16 bit
    Навигация по главам: есть


    General
    Unique ID : 229892508673655707327920780356650545244 (0xACF3AFC7EEEAC17C90719EE795EC305C)
    Complete name : D:\Торенты\P0dRaJa3el.2015.L2.WEB-DL.1080p.mkv
    Format : Matroska
    Format version : Version 4 / Version 2
    File size : 3.22 GiB
    Duration : 1h 30mn
    Overall bit rate : 5 067 Kbps
    Movie name : The.Wannabe.2015.1080p.WEB-DL.DD5.1.H264-FGT
    Encoded date : UTC 2015-12-06 18:34:14
    Writing application : mkvmerge v8.6.1 ('Flying') 64bit
    Writing library : libebml v1.3.3 + libmatroska v1.4.4

    Video
    ID : 1
    Format : AVC
    Format/Info : Advanced Video Codec
    Format profile : High@L4.0
    Format settings, CABAC : Yes
    Format settings, ReFrames : 5 frames
    Codec ID : V_MPEG4/ISO/AVC
    Duration : 1h 30mn
    Bit rate : 4 390 Kbps
    Width : 1 912 pixels
    Height : 794 pixels
    Display aspect ratio : 2.40:1
    Frame rate : 23.976 fps
    Color space : YUV
    Chroma subsampling : 4:2:0
    Bit depth : 8 bits
    Scan type : Progressive
    Bits/(Pixel*Frame) : 0.121
    Stream size : 2.79 GiB (87%)
    Language : English
    Default : Yes
    Forced : No
    Color primaries : BT.709-5, BT.1361, IEC 61966-2-4, SMPTE RP177
    Transfer characteristics : BT.709-5, BT.1361
    Matrix coefficients : BT.709-5, BT.1361, IEC 61966-2-4 709, SMPTE RP177

    Audio #1
    ID : 2
    Format : AC-3
    Format/Info : Audio Coding 3
    Mode extension : CM (complete main)
    Codec ID : A_AC3
    Duration : 1h 30mn
    Bit rate mode : Constant
    Bit rate : 192 Kbps
    Channel(s) : 2 channels
    Channel positions : Front: L R
    Sampling rate : 48.0 KHz
    Bit depth : 16 bits
    Compression mode : Lossy
    Stream size : 125 MiB (4%)
    Language : Russian
    Default : Yes
    Forced : No

    Audio #2
    ID : 3
    Format : AC-3
    Format/Info : Audio Coding 3
    Mode extension : CM (complete main)
    Codec ID : A_AC3
    Duration : 1h 30mn
    Bit rate mode : Constant
    Bit rate : 384 Kbps
    Channel(s) : 6 channels
    Channel positions : Front: L C R, Side: L R, LFE
    Sampling rate : 48.0 KHz
    Bit depth : 16 bits
    Compression mode : Lossy
    Stream size : 250 MiB (8%)
    Language : English
    Default : No
    Forced : No

    Text #1
    ID : 4
    Format : UTF-8
    Codec ID : S_TEXT/UTF8
    Codec ID/Info : UTF-8 Plain Text
    Language : English
    Default : No
    Forced : No

    Text #2
    ID : 5
    Format : UTF-8
    Codec ID : S_TEXT/UTF8
    Codec ID/Info : UTF-8 Plain Text
    Language : Russian
    Default : Yes
    Forced : Yes

    Menu
    00:00:00.000 : en:Chapter 1
    00:08:17.000 : en:Chapter 2
    00:15:21.000 : en:Chapter 3
    00:22:13.000 : en:Chapter 4
    00:31:54.000 : en:Chapter 5
    00:38:52.000 : en:Chapter 6
    00:48:33.000 : en:Chapter 7
    00:55:31.000 : en:Chapter 8
    01:03:04.000 : en:Chapter 9
    01:10:39.000 : en:Chapter 10
    01:17:30.000 : en:Chapter 11
    01:25:37.000 : en:Chapter 12
    Скриншоты:

    © Оформление by .::Ворон::.
    pb.wtf



  • Скачать Подражатель через торрент http://pic.kartinco.top/images/6/ordi9.jpg Скачать фильм Подражатель через торрент бесплантно в хорошем качестве Описание: Действие фильма происходит в 1992 году в Нью-Йорке. Мелкий жулик Томас Греко – истинный фанат мафии и классических гангстерских ... 10 10 1
    Торрент: Зарегистрирован [2015-12-06 20:19] · скачан: 93 раз
    Статус: T временная
    Размер: 3.22 GB
    Как cкачать? Как скачать Подражатель через торрент | qTorrent

    % Раздел Тема Автор DL S | L
    T Фильмы 2015 [DVDrip, WEB-DLRip, HDrip] [ 1.42 GB ] Подражатель / The Wannabe [2015 BDRip Любительский [Paradox & Omskbird records] Twi7ter Скачать
    1 | 0
    T R.G. Resident & PiratVoice - Фильмы, Видео [ 1.46 GB ] Подражатель / The Wannabe [2015 WEB-DLRip-AVC Любительский [Paradox & Omskbird records] От R.G. Resident White Smoke Скачать
    1 | 0
    T Фильмы 2015 [DVDrip, WEB-DLRip, HDrip] [ 1.37 GB ] Подражатель / The Wannabe [2015 WEB-DLRip Любительский [Paradox & Omskbird records] White Smoke Скачать
    1 | 0
    T Фильмы (WEB-DL 720p, 1080p) [ 3.34 GB ] Подражатель / The Wannabe [2015 WEB-DL 1080p Любительский [Paradox & Omskbird records] White Smoke Скачать
    1 | 0
    T Фильмы 2015 (Звук TS, Cam, VO, DVO) [ 1.36 GB ] Подражатель / The Wannabe [2015 WEB-DLRip DVO] Ворон Скачать
    1 | 0
    Фильмы без перевода [ 708 MB ] Подражатель / The Wannabe [2015 WEB-DLRip Перевод отсутствует Оригинал] makarevich Скачать
    1 | 0

    28-11-2019 20:33  

    Отключить всю рекламу на сайте

      Дорогой пользователь! Огромная просьба, поблагодарите релизера, оцените раздачу и оставьте свои комментарий, если Вы скачали Подражатель через торрент бесплатно! Внесите свою лепту в развитие PiratBit!
      Комментировать посты могут только пользователи прошедшие не сложную регистрацию
      Показать сообщения:    

      Подражатель через торрент
      Скачать бесплатно Подражатель
      Подражатель скачать торрент
      Подражатель смотреть онлайн
      Cкачать фильм Подражатель бесплатно
      Подражатель скачать торрент в хорошем качестве
      Подражатель смотреть онлайн бесплатно в хорошем качестве


      Вы не можете начинать темы
      Вы не можете отвечать на сообщения
      Вы не можете редактировать свои сообщения
      Вы не можете удалять свои сообщения
      Вы не можете голосовать в опросах
      Вы не можете прикреплять файлы к сообщениям
      Вы можете скачивать файлы