Ссылка на приватное зеркало нашего сайта всего за 1$. Внимание количество ограничено!!!

2 сезон

iTunes

1 сезон

1

2 сезон

2 сезон

iTunes

1 сезон

RePack

30

Ultimate

ВАЖНО

ИГРА 18+

pack

RePack

MK11
pack

Забери бонус

RePack

jed

!!Акция!!

Alien_Rage

RePack

fifa19

RePack

Assassins Creed: Odyssey

RePack

NEED FOR SPEED™ PAYBACK

4 сезон

9 сезон

Бесстыжие 9 сезон

Все сериалы

все сериалы на PB.wtf

RePack

FAR CRY 5
  

Подражатель / The Wannabe (Ник Сэндоу) [2015, триллер, драма, криминал, WEB-DLRip, DVO] pb.wtf

Подражатель через торрент pb.wtf

Размер: 1.36 GB | Добавлен: 4 года 11 мес. назад | Торрент скачан:167 раз
Скачать  

06-12-2015 20:20 Подражатель Скачать торрент  


Подражатель / The Wannabe


ИНФОРМАЦИЯ:
Год выпуска:2015
Страна: США
Жанр: триллер, драма, криминал, детектив
Продолжительность: 01:30:52
Перевод: Любительский (двухголосый) [Sunshine Studio]
Режиссер: Ник Сэндоу

В Ролях:


Патриция Аркетт (Rose), Дэвид Зайас, Майкл Империоли (Alphonse), Винсент Пьяцца (Thomas), Доменик Ломбардоззи (Mickey), Ник Сэндоу (Anthony), Майк Старр, Даг Э. Даг (The Twin), Ларри Юден (Assistant DA), Слэйн, Нил Хафф, Адриана ДеМео (Annie)

Описание:
Действие фильма происходит в 1992 году в Нью-Йорке. Мелкий жулик Томас Греко – истинный фанат мафии и классических гангстерских фильмов. Он пытается найти способ, благодаря которому один из его героев, босс мафии Джон Готти, судимый за многочисленные преступления в федеральном суде, может быть оправдан. В эпоху, когда большинство членов банд носят спортивные костюмы, Томас старается выглядеть как парни из старых фильмов. Чем, вероятно, и привлекает внимание Роуз, пожилой женщины, в которой находит единомышленницу.

  • Мировая премьера:17 апреля 2015

    ТЕХ.ДАННЫЕ:
    Качество: WEB-DLRip
    Формат: AVI
    Видео: XviD, 720x304 (2.35:1), 1858 kbps, 23,976 fps, 0,354 bpp
    Аудио: AC3 / 2.0 / 48 kHz / 192 kbps / 16 bit


    General
    Complete name : D:\Торенты\P0dRaJa3el.2015.L2.WEB-DLRip.1400MB.avi
    Format : AVI
    Format/Info : Audio Video Interleave
    File size : 1.36 GiB
    Duration : 1h 30mn
    Overall bit rate : 2 145 Kbps
    Writing application : VirtualDubMod 1.5.10.3 | www.virtualdub-fr.org || (build 2550/release)
    Writing library : VirtualDubMod build 2550/release

    Video
    ID : 0
    Format : MPEG-4 Visual
    Format profile : Advanced Simple@L5
    Format settings, BVOP : 2
    Format settings, QPel : No
    Format settings, GMC : No warppoints
    Format settings, Matrix : Default (MPEG)
    Codec ID : XVID
    Codec ID/Hint : XviD
    Duration : 1h 30mn
    Bit rate : 1 859 Kbps
    Width : 720 pixels
    Height : 304 pixels
    Display aspect ratio : 2.35:1
    Frame rate : 23.976 fps
    Color space : YUV
    Chroma subsampling : 4:2:0
    Bit depth : 8 bits
    Scan type : Progressive
    Compression mode : Lossy
    Bits/(Pixel*Frame) : 0.354
    Stream size : 1.18 GiB (87%)
    Writing library : XviD 1.2.1 (UTC 2008-12-04)

    Audio
    ID : 1
    Format : AC-3
    Format/Info : Audio Coding 3
    Mode extension : CM (complete main)
    Codec ID : 2000
    Duration : 1h 30mn
    Bit rate mode : Constant
    Bit rate : 192 Kbps
    Channel(s) : 2 channels
    Channel positions : Front: L R
    Sampling rate : 48.0 KHz
    Bit depth : 16 bits
    Compression mode : Lossy
    Stream size : 125 MiB (9%)
    Alignment : Split accross interleaves
    Скриншоты:

    © Оформление by .::Ворон::.
    pb.wtf



  • Скачать Подражатель через торрент http://pic.kartinco.top/images/6/ordi9.jpg Скачать фильм Подражатель через торрент бесплантно в хорошем качестве Описание: Действие фильма происходит в 1992 году в Нью-Йорке. Мелкий жулик Томас Греко – истинный фанат мафии и классических гангстерских ... 10 10 6
    Торрент: Зарегистрирован [2015-12-06 20:20] · скачан: 167 раз
    Статус: T временная
    Размер: 1.36 GB
    Как cкачать? Как скачать Подражатель через торрент | qTorrent

    % Раздел Тема Автор DL S | L
    T Фильмы 2015 [DVDrip, WEB-DLRip, HDrip] [ 1.42 GB ] Подражатель / The Wannabe [2015 BDRip Любительский [Paradox & Omskbird records] Twi7ter Скачать
    1 | 0
    T R.G. Resident & PiratVoice - Фильмы, Видео [ 1.46 GB ] Подражатель / The Wannabe [2015 WEB-DLRip-AVC Любительский [Paradox & Omskbird records] От R.G. Resident White Smoke Скачать
    1 | 0
    T Фильмы 2015 [DVDrip, WEB-DLRip, HDrip] [ 1.37 GB ] Подражатель / The Wannabe [2015 WEB-DLRip Любительский [Paradox & Omskbird records] White Smoke Скачать
    1 | 0
    T Фильмы (WEB-DL 720p, 1080p) [ 3.34 GB ] Подражатель / The Wannabe [2015 WEB-DL 1080p Любительский [Paradox & Omskbird records] White Smoke Скачать
    1 | 0
    T Фильмы (WEB-DL 720p, 1080p) [ 3.22 GB ] Подражатель / The Wannabe [2015 WEB-DL 1080p DVO] Ворон Скачать
    1 | 0
    Фильмы без перевода [ 708 MB ] Подражатель / The Wannabe [2015 WEB-DLRip Перевод отсутствует Оригинал] makarevich Скачать
    1 | 0

    28-11-2019 20:33  

    Отключить всю рекламу на сайте

      Дорогой пользователь! Огромная просьба, поблагодарите релизера, оцените раздачу и оставьте свои комментарий, если Вы скачали Подражатель через торрент бесплатно! Внесите свою лепту в развитие PiratBit!
      Комментировать посты могут только пользователи прошедшие не сложную регистрацию
      Показать сообщения:    

      Подражатель через торрент
      Скачать бесплатно Подражатель
      Подражатель скачать торрент
      Подражатель смотреть онлайн
      Cкачать фильм Подражатель бесплатно
      Подражатель скачать торрент в хорошем качестве
      Подражатель смотреть онлайн бесплатно в хорошем качестве


      Вы не можете начинать темы
      Вы не можете отвечать на сообщения
      Вы не можете редактировать свои сообщения
      Вы не можете удалять свои сообщения
      Вы не можете голосовать в опросах
      Вы не можете прикреплять файлы к сообщениям
      Вы можете скачивать файлы