Ссылка на приватное зеркало всего за 1$. Внимание количество ограничено!!!

iTunes

iTunes

iTunes

1

iTunes

iTunes

iTunes

iTunes

iTunes

30
pack

$ от Little Big

ВАЖНО

!!Акция!!

Alien_RageХит недели

RePack

Resident Evil 21

ИГРА 18+

pack

RePack

jed

!!Акция!!

Alien_Rage

RePack

fifa19

RePack

Assassins Creed: Odyssey

RePack

NEED FOR SPEED™ PAYBACK

4 сезон

9 сезон

Бесстыжие 9 сезон

Все сериалы

все сериалы на PB.wtf

RePack

FAR CRY 5
  

На поверхности / The Surface (Джил Кэйтс мл.) [2014, триллер, драма, WEB-DL 720p] Любительский (одноголосый) [Xixidok] pb.wtf

На поверхности через торрент pb.wtf

Размер: 2.89 GB | Добавлен: 4 года 7 мес. назад | Торрент скачан:123 раза
Скачать  

07-12-2015 06:41 На поверхности Скачать торрент  

На поверхности / The Surface«Sometimes You Look For The End. Sometimes It Looks For You»

  • Год выхода: 2014
  • Жанр: триллер, драма
  • Страна: США
  • Перевод: Любительский (одноголосый) [Xixidok]
  • Режиссер: Джил Кэйтс мл.
  • В ролях:

    Шон Эстин (Mitch), Мими Роджерс (Kim), Крис Малки (Kelly), Джон Эммет Трэйси (Bank Manager), Чайк Джонсон, Элвис Тао (Factory Worker), Джефф Джендельман (John), Sam Fuhrer (The Waterskier), Нил Вайлнсон (Nelson, Fox TV Cameraman), David John Rosenthal (Fisherman), Dylan Simon (Cheering Fan), Рэйчел Рени (Laurie)


  • Катер Митча сталкивается с обломками небольшого самолета и терпит аварию. Он обнаруживает живым пилота самолета, цепляющегося за обломки и вытаскивает раненого из воды. Вместо того, чтобы быть благодарным, пилот раздражен, подозрителен, и агрессивно защищает свой загадочный рюкзак. Вне зоны доступа связи, вдвоем на лодке, мужчины начинают раскрывать свои настоящие причины быть на озере в тот день.

  • Качество: WEB-DL 720p
  • Формат: MKV
  • Видео кодек: AVC
  • Аудио кодек: AC3
  • Видео: AVC, 1280x690 (1.855), 3937 kbps, 23,976 fps, 0,186 bpp
  • Аудио №1: русский / AC3 / 5.1 / 48 kHz / 384 kbps / 16 bit |VO|
  • Аудио №2: английский / AC3 / 5.1 / 48 kHz / 384 kbps / 16 bit
  • Навигация по главам: есть

    Код:

    General
    Unique ID                                : 197355555002977535691426977369308660147 (0x94794C1C5219B418B0A3C57CCD1201B3)
    Complete name                            : H:\torrent\film\На поверхности\The Surface.2014.720p.WEB-DL.mkv
    Format                                   : Matroska
    Format version                           : Version 4 / Version 2
    File size                                : 2.89 GiB
    Duration                                 : 1h 26mn
    Overall bit rate                         : 4 801 Kbps
    Encoded date                             : UTC 2015-12-06 18:07:57
    Writing application                      : mkvmerge v6.9.1 ('Blue Panther') 64bit built on Apr 18 2014 18:23:38
    Writing library                          : libebml v1.3.0 + libmatroska v1.4.1

    Video
    ID                                       : 1
    Format                                   : AVC
    Format/Info                              : Advanced Video Codec
    Format profile                           : High@L3.1
    Format settings, CABAC                   : No
    Format settings, ReFrames                : 2 frames
    Codec ID                                 : V_MPEG4/ISO/AVC
    Duration                                 : 1h 26mn
    Bit rate                                 : 3 938 Kbps
    Width                                    : 1 280 pixels
    Height                                   : 690 pixels
    Display aspect ratio                     : 1.855
    Frame rate                               : 23.976 fps
    Color space                              : YUV
    Chroma subsampling                       : 4:2:0
    Bit depth                                : 8 bits
    Scan type                                : Progressive
    Bits/(Pixel*Frame)                       : 0.186
    Stream size                              : 2.37 GiB (82%)
    Language                                 : English
    Default                                  : Yes
    Forced                                   : No
    Color primaries                          : BT.709-5, BT.1361, IEC 61966-2-4, SMPTE RP177
    Transfer characteristics                 : BT.709-5, BT.1361
    Matrix coefficients                      : BT.709-5, BT.1361, IEC 61966-2-4 709, SMPTE RP177

    Audio #1
    ID                                       : 2
    Format                                   : AC-3
    Format/Info                              : Audio Coding 3
    Mode extension                           : CM (complete main)
    Codec ID                                 : A_AC3
    Duration                                 : 1h 26mn
    Bit rate mode                            : Constant
    Bit rate                                 : 384 Kbps
    Channel(s)                               : 6 channels
    Channel positions                        : Front: L C R, Side: L R, LFE
    Sampling rate                            : 48.0 KHz
    Bit depth                                : 16 bits
    Compression mode                         : Lossy
    Stream size                              : 237 MiB (8%)
    Title                                    : xixidoktor
    Language                                 : Russian
    Default                                  : Yes
    Forced                                   : No

    Audio #2
    ID                                       : 3
    Format                                   : AC-3
    Format/Info                              : Audio Coding 3
    Mode extension                           : CM (complete main)
    Codec ID                                 : A_AC3
    Duration                                 : 1h 26mn
    Bit rate mode                            : Constant
    Bit rate                                 : 384 Kbps
    Channel(s)                               : 6 channels
    Channel positions                        : Front: L C R, Side: L R, LFE
    Sampling rate                            : 48.0 KHz
    Bit depth                                : 16 bits
    Compression mode                         : Lossy
    Stream size                              : 237 MiB (8%)
    Title                                    : original
    Language                                 : English
    Default                                  : No
    Forced                                   : No

    Menu
    00:00:00.000                             : en:Chapter 1
    00:07:18.000                             : en:Chapter 2
    00:14:51.000                             : en:Chapter 3
    00:22:53.000                             : en:Chapter 4
    00:31:02.000                             : en:Chapter 5
    00:38:01.000                             : en:Chapter 6
    00:46:03.000                             : en:Chapter 7
    00:56:18.000                             : en:Chapter 8
    01:04:11.000                             : en:Chapter 9
    01:12:12.000                             : en:Chapter 10
    01:20:46.000                             : en:Chapter 11

    Скриншоты:


    © Оформление by -Lexx- pb.wtf



  • Скачать На поверхности через торрент http://pic.kartinco.top/images/6/stazu.jpg Скачать фильм На поверхности через торрент бесплантно в хорошем качестве qw.png Катер Митча сталкивается с обломками небольшого самолета и терпит аварию. Он обнаруживает живым пилота самолета, цепляющегося за ... 8.9 10 12
    Торрент: Зарегистрирован [2015-12-07 06:41] · скачан: 123 раз
    Статус: T временная
    Размер: 2.89 GB
    Как cкачать? Как скачать На поверхности через торрент | qTorrent

    28-11-2019 20:33  

    Отключить всю рекламу на сайте

      Дорогой пользователь! Огромная просьба, поблагодарите релизера, оцените раздачу и оставьте свои комментарий, если Вы скачали На поверхности через торрент бесплатно! Внесите свою лепту в развитие PiratBit!
      Комментировать посты могут только пользователи прошедшие не сложную регистрацию
      Показать сообщения:    

      На поверхности через торрент
      Скачать бесплатно На поверхности
      На поверхности скачать торрент
      На поверхности смотреть онлайн
      Cкачать фильм На поверхности бесплатно
      На поверхности скачать торрент в хорошем качестве
      На поверхности смотреть онлайн бесплатно в хорошем качестве


      Вы не можете начинать темы
      Вы не можете отвечать на сообщения
      Вы не можете редактировать свои сообщения
      Вы не можете удалять свои сообщения
      Вы не можете голосовать в опросах
      Вы не можете прикреплять файлы к сообщениям
      Вы можете скачивать файлы