Ссылка на приватное зеркало всего за 1$. Внимание количество ограничено!!!

iTunes

iTunes

iTunes

1

iTunes

iTunes

iTunes

iTunes

iTunes

30
pack

Новость дня

ВАЖНО

!!Акция!!

Alien_RageХит недели

RePack

Resident Evil 21

ИГРА 18+

pack

RePack

jed

!!Акция!!

Alien_Rage

RePack

fifa19

RePack

Assassins Creed: Odyssey

RePack

NEED FOR SPEED™ PAYBACK

4 сезон

9 сезон

Бесстыжие 9 сезон

Все сериалы

все сериалы на PB.wtf

RePack

FAR CRY 5
  

Саранча (Егор Баранов) [2015, триллер, WEB-DLRip от MegaPeer] pb.wtf

Саранча через торрент pb.wtf

Размер: 747 MB | Добавлен: 4 года 5 мес. назад | Торрент скачан:687 раз
Скачать  

07-12-2015 10:09 Саранча Скачать торрент  

Информация о фильме
Название: Саранча
Оригинальное название: Саранча
Год выхода: 2015
Выпущено: Россия
Длительность: 01:58:42
Озвучивание: Оригинал (русский)
Жанр: триллер
Режиссер: Егор Баранов

В ролях: Пётр Фёдоров, Паулина Андреева, Дмитрий Шевченко, Екатерина Волкова, Евгения Дмитриева, Максим Пинскер, Алексей Горбунов, Евгений Стычкин, Александр Голубков, Иван Щенин
Описание: У них не было ничего общего: Артем — простой парень из провинции, работяга и поэт, Лера — столичная штучка, чью жизнь распланировали родители. Но банальный курортный роман оборачивается обжигающей страстью, которая ломает судьбы. И хотя Лера выходит замуж за друга отца, а Артем назло женится на богатой даме постарше, их безумное влечение рушит все барьеры. Жажда плоти невыносима, и для приговоренных друг к другу любовников уже не существует ни правил, ни опасности, ни страха. И когда разрушительная страсть обагряется кровью, они уже не в силах остановиться…
Файл
Качество: WEB-DLRip
Формат: AVI
Видео: XviD, 743 Кбит/сек, 656x272, 25.000 fps
Аудио: MP3, 128 kb/s (2 ch) 48.0 KHz
Общее
Полное имя : E:\Sarancha.2013.WEB-DLRip.745MB.MegaPeer.avi
Формат : AVI
Формат/Информация : Audio Video Interleave
Размер файла : 747 Мбайт
Продолжительность : 1 ч. 58 м.
Общий поток : 880 Кбит/сек
Программа кодирования : VirtualDubMod 1.5.10.3 | www.virtualdub-fr.org || (build 2550/release)
Библиотека кодирования : VirtualDubMod build 2550/release

Видео
Идентификатор : 0
Формат : MPEG-4 Visual
Профиль формата : Advanced Simple@L5
Параметр BVOP формата : 1
Параметр QPel формата : Нет
Параметр GMC формата : Без точки перехода
Параметр матрицы формата : Выборочная
Идентификатор кодека : XVID
Идентификатор кодека/Подсказка : XviD
Продолжительность : 1 ч. 58 м.
Битрейт : 743 Кбит/сек
Ширина : 656 пикселей
Высота : 272 пикселя
Соотношение сторон : 2,40:1
Частота кадров : 25,000 кадров/сек
Цветовое пространство : YUV
Субдискретизация насыщенности : 4:2:0
Битовая глубина : 8 бит
Тип развёртки : Прогрессивная
Метод сжатия : С потерями
Бит/(Пиксели*Кадры) : 0.166
Размер потока : 630 Мбайт (84%)
Библиотека кодирования : XviD 73

Аудио
Идентификатор : 1
Формат : MPEG Audio
Версия формата : Version 1
Профиль формата : Layer 3
Идентификатор кодека : 55
Идентификатор кодека/Подсказка : MP3
Продолжительность : 1 ч. 58 м.
Вид битрейта : Постоянный
Битрейт : 128 Кбит/сек
Каналы : 2 канала
Частота : 48,0 КГц
Метод сжатия : С потерями
Размер потока : 109 Мбайт (15%)
Выравнивание : Соединение по промежуткам
Продолжительность промежутка : 40 мс. (1,00 видеокадр)
Время предзагрузки промежутка : 504 мс.
Библиотека кодирования : LAME3.99r
Настройки программы : -m s -V 4 -q 2 -lowpass 17 -b 128

скриншот   скриншот   скриншот  
pb.wtf



Скачать Саранча через торрент http://pic1.kartinco.top/images/10/jsw7a.jpg Скачать фильм Саранча через торрент бесплантно в хорошем качестве Описание: У них не было ничего общего: Артем — простой парень из провинции, работяга и поэт, Лера — столичная штучка, чью жизнь ... 8.8 10 31
Info! Золотая раздача, скачанное не засчитывается.
Торрент: Зарегистрирован [2015-12-07 10:09] · скачан: 687 раз
Статус: √ проверено
Размер: 747 MB
Как cкачать? Как скачать Саранча через торрент | qTorrent

% Раздел Тема Автор DL S | L
T Фильмы (мультфильмы) cо спонсором показа (Новинки AVI/MKV) [ 3.42 GB ] Саранча / Locusts [2019 WEB-DL 720p] MVO ["Синема УС"] bober100 Скачать
5 | 0
T Фильмы (мультфильмы) cо спонсором показа (Новинки AVI/MKV) [ 1.37 GB ] Саранча / Locusts [2019 WEB-DLRip] MVO ["Синема УС"] bober100 Скачать
5 | 0
Наши фильмы (HD, WEB-DL 720p, 1080p) [ 4.2 GB ] Саранча [2013 WEB-DL 1080p] [Русский] -Lexx- Скачать
2 | 0
Наши сериалы [ 3.96 GB ] Саранча / 1-4 серии из 4 [2013 эротика WEB-DLRip 720p] bober100 Скачать
1 | 0

28-11-2019 20:33  

Отключить всю рекламу на сайте

17-12-2015 20:10 Саранча Скачать торрент  

Нормальный фильм,не хуливуд-хэпиэнда не будет. pb.wtf



24-12-2015 20:52 Саранча Скачать торрент  

Нечего хорошего фильм на 3 из 5.в жанре надо было добавить эротика .pb.wtf



    Дорогой пользователь! Огромная просьба, поблагодарите релизера, оцените раздачу и оставьте свои комментарий, если Вы скачали Саранча через торрент бесплатно! Внесите свою лепту в развитие PiratBit!
    Комментировать посты могут только пользователи прошедшие не сложную регистрацию
    Показать сообщения:    

    Саранча через торрент
    Скачать бесплатно Саранча
    Саранча скачать торрент
    Саранча смотреть онлайн
    Cкачать фильм Саранча бесплатно
    Саранча скачать торрент в хорошем качестве
    Саранча смотреть онлайн бесплатно в хорошем качестве


    Вы не можете начинать темы
    Вы не можете отвечать на сообщения
    Вы не можете редактировать свои сообщения
    Вы не можете удалять свои сообщения
    Вы не можете голосовать в опросах
    Вы не можете прикреплять файлы к сообщениям
    Вы можете скачивать файлы