Ссылка на приватное зеркало нашего сайта всего за 1$. Внимание количество ограничено!!!

2 сезон

iTunes

1 сезон

1

2 сезон

2 сезон

iTunes

1 сезон

RePack

30

Ultimate

ВАЖНО

ИГРА 18+

pack

RePack

MK11
pack

Забери бонус

RePack

jed

!!Акция!!

Alien_Rage

RePack

fifa19

RePack

Assassins Creed: Odyssey

RePack

NEED FOR SPEED™ PAYBACK

4 сезон

9 сезон

Бесстыжие 9 сезон

Все сериалы

все сериалы на PB.wtf

RePack

FAR CRY 5
  

Терминатор: Хроники Сары Коннор / Битва за будущее / Terminator: The Sarah Connor Chronicles / Сезон: 1-2 / Серии: 1-31 из 31 (Чарльз Бисон / Charles Beeson) [2008-2009, фантастика, боевик, триллер, BDRip] Dub [REN-TV] pb.wtf

Терминатор: Хроники Сары Коннор через торрент pb.wtf

Размер: 19.12 GB | Добавлен: 4 года 11 мес. назад | Торрент скачан:57 раз
Скачать  

07-12-2015 13:19 Терминатор: Хроники Сары Коннор Скачать торрент  

Терминатор: Битва за будущее / Terminator: The Sarah Connor Chronicles

Год выпуска: 2008-2009
Страна: США
Жанр: фантастика, боевик, триллер, драма
Режиссёр: Чарльз Бисон / Charles Beeson, Джеффри Дж. Хант / Jeffrey G. Hunt и другие
Продолжительность: ~ 00:46:00 серия.
Перевод: Дубляж - REN-TV
Режиссер: Чарльз Бисон , Джеффри Дж. Хант , Дэвид Наттер
В ролях: Лина Хиди (Sarah Connor), Томас Деккер (John Connor), Саммер Глау (Cameron Phillips), Ричард Т. Джонс (James Ellison), Брайан Остин Грин (Derek Reese), Гаррет Диллахант (Cromartie), Ширли Мэнсон (Catherine Weaver), Ливэн Рамбин (Riley Dawson), Стефани Джейкобсен (Jesse Flores), Дин Уинтерс (Charley Dixon), Маккензи Брук Смит (Savannah Weaver), Шэйн Эдельман (Matt Murch)
Описание:
Действие сериала разворачивается после событий в фильме «Терминатор 2: Судный день». Сара Коннор и ее сын Джон скрываются от правительства и вынашивают план уничтожения корпорации Skynet в надежде предотвратить Армагеддон.
Рейтинг:

MPAA: PG - Рекомендуется присутствие родителей
Качество: BDRip
Формат: AVI
Видео кодек: XviD
Аудио кодек: AC3
Видео: XviD, 704x400 (16:9), 1800 kbps, 23,976 fps, 0,267 bpp
Аудио: AC3 / 2.0 / 48 kHz / 192 kbps / 16 bit

Код:

General
Complete name                            : C:\Users\tut\Desktop\Terminator The Sarah Connor Chronicles\Season_01\s01e01_Pilot.avi
Format                                   : AVI
Format/Info                              : Audio Video Interleave
File size                                : 668 MiB
Duration                                 : 46mn 39s
Overall bit rate                         : 2 001 Kbps
Writing application                      : VirtualDubMod 1.5.10.3 | www.virtualdub-fr.org || (build 2550/release)
Writing library                          : VirtualDubMod build 2550/release

Video
ID                                       : 0
Format                                   : MPEG-4 Visual
Format profile                           : Advanced Simple@L5
Format settings, BVOP                    : 2
Format settings, QPel                    : No
Format settings, GMC                     : No warppoints
Format settings, Matrix                  : Custom
Codec ID                                 : XVID
Codec ID/Hint                            : XviD
Duration                                 : 46mn 39s
Bit rate                                 : 1 800 Kbps
Width                                    : 704 pixels
Height                                   : 400 pixels
Display aspect ratio                     : 16:9
Frame rate                               : 23.976 fps
Color space                              : YUV
Chroma subsampling                       : 4:2:0
Bit depth                                : 8 bits
Scan type                                : Progressive
Compression mode                         : Lossy
Bits/(Pixel*Frame)                       : 0.267
Stream size                              : 601 MiB (90%)
Writing library                          : XviD 73

Audio
ID                                       : 1
Format                                   : AC-3
Format/Info                              : Audio Coding 3
Mode extension                           : CM (complete main)
Codec ID                                 : 2000
Duration                                 : 46mn 39s
Bit rate mode                            : Constant
Bit rate                                 : 192 Kbps
Channel(s)                               : 2 channels
Channel positions                        : Front: L R
Sampling rate                            : 48.0 KHz
Bit depth                                : 16 bits
Compression mode                         : Lossy
Stream size                              : 64.1 MiB (10%)
Alignment                                : Split accross interleaves
Interleave, duration                     : 42 ms (1.00 video frame)
Interleave, preload duration             : 500 ms

pb.wtf



Скачать Терминатор: Хроники Сары Коннор через торрент http://i6.imageban.ru/out/2015/12/07/ca28e048cf2606a615bf1bb40967d70c.jpg Скачать фильм Терминатор: Хроники Сары Коннор через торрент бесплантно в хорошем качестве Описание: Действие сериала разворачивается после событий в фильме «Терминатор 2: Судный день». Сара Коннор и ее сын Джон скрываются от ... 10 10 10
Info! Золотая раздача, скачанное не засчитывается.
Торрент: Зарегистрирован [2015-12-07 13:19] · скачан: 57 раз
Статус: √ проверено
Размер: 19.12 GB
Как cкачать? Как скачать Терминатор: Хроники Сары Коннор через торрент | qTorrent

28-11-2019 20:33  

Отключить всю рекламу на сайте

07-12-2015 16:51 Терминатор: Хроники Сары Коннор Скачать торрент  

Я то уж обрадовался,что внезапно новый сезон выпустилиpb.wtf



07-12-2015 21:01 Терминатор: Хроники Сары Коннор Скачать торрент  

Кто смотрел,отпишитесь!pb.wtf



13-12-2015 19:30 Терминатор: Хроники Сары Коннор Скачать торрент  

Сериал супер жаль нет продолженияpb.wtf



    Дорогой пользователь! Огромная просьба, поблагодарите релизера, оцените раздачу и оставьте свои комментарий, если Вы скачали Терминатор: Хроники Сары Коннор через торрент бесплатно! Внесите свою лепту в развитие PiratBit!
    Комментировать посты могут только пользователи прошедшие не сложную регистрацию
    Показать сообщения:    

    Терминатор: Хроники Сары Коннор через торрент
    Скачать бесплатно Терминатор: Хроники Сары Коннор
    Терминатор: Хроники Сары Коннор скачать торрент
    Терминатор: Хроники Сары Коннор смотреть онлайн
    Cкачать фильм Терминатор: Хроники Сары Коннор бесплатно
    Терминатор: Хроники Сары Коннор скачать торрент в хорошем качестве
    Терминатор: Хроники Сары Коннор смотреть онлайн бесплатно в хорошем качестве


    Вы не можете начинать темы
    Вы не можете отвечать на сообщения
    Вы не можете редактировать свои сообщения
    Вы не можете удалять свои сообщения
    Вы не можете голосовать в опросах
    Вы не можете прикреплять файлы к сообщениям
    Вы можете скачивать файлы