Всегда рабочее зеркало без VPN и Proxy просто перед .vidak.icu напиши любое слово или цифру, Пример http://xyi8.vidak.icu

MVO

Лицензия

1 сезон

1

1 сезон

iTunes

1 сезон

13

1 сезон

Deluxe

pack

Рекомендуем

Пиратка

30

ВАЖНО

RePack

MK11

RePack

jed

RePack

fifa19

RePack

RDR2

RePack

NEED FOR SPEED™ PAYBACK

Кинопоиск HD

6 сезон

 Острые козырьки 6 сезон

Все сериалы

все сериалы на PB.wtf

RePack

FAR CRY 5

Anonymous, нам критически не хватает 2100 руб. на оплату серверов и переферии за МАЙ, помоги нам пожалуйста, вся надежда только на тебя. В благодарность мы отключим тебе всю рекламу на сайте!

×
  
Magnet ссылка

В пути / Away We Go (Сэм Мендес) [2009 г., драма, мелодрама, комедия, HDRip] MVO от R.G. Resident pb.wtf

В пути через торрент pb.wtf

Размер: 1.73 GB | Добавлен: 6 лет 6 мес. назад | Торрент скачан:0 раз
Смотреть онлайн В пути | Скачать    Ребята, помогите собрать деньги на оплату серверов!!!

07-12-2015 14:46 В пути Скачать торрент  

В пути / Away We GoГод выпуска: 2009
Страна: США, Великобритания
Жанр: драма, мелодрама, комедия
Продолжительность: 01:37:45
Перевод: Профессиональный, многоголосый | R5
Субтитры: Нет

Режиссер: Сэм Мендес
Продюссер: Питер Сараф, Эдвард Саксон, Марк Тёртлтауб
Сценарий: Дэйв Эггерс, Вендела Вида

Бюджет: $17 000 000
Премьера в мире: 5 июня 2009



В ролях: Джон Красински, Майя Рудольф, Эллисон Дженни, Джефф Дэниелс, Мэгги Джилленхол, Крис Мессина, Кэтрин О’Хара, Пол Шнайдер, Кармен Эджого, Джим Гэффиган

Описание: Берт и Верона узнают, что у них будет ребенок. Уверенные, что малыш должен расти в гармонии с окружающим миром, будущие родители отправляются на поиски идеального места жительства.

Качество: HDRip | BDRip 720p
Формат: AVI
Видео кодек: XviD
Аудио кодек: AC3
Видео: 720x304 (2.37:1), 23.976 fps, XviD build 73 ~2143 kbps avg, 0.41 bit/pixel
Аудио: 48 kHz, AC3 Dolby Digital, 3/2 (L,C,R,l,r) + LFE ch, ~384 kbps



Автор рипа: Dean24
| | R.G. Resident
Общее
Полное имя : D:\Мои документы\Фильмы\Сайт\Away.We.Go.HDRip.avi
Формат : AVI
Формат/Информация : Audio Video Interleave
Размер файла : 1,73 Гбайт
Продолжительность : 1 ч. 37 м.
Общий поток : 2537 Кбит/сек
Программа кодирования : VirtualDubMod 1.5.10.3 | www.virtualdub-fr.org || (build 2550/release)
Библиотека кодирования : VirtualDubMod build 2550/release

Видео
Идентификатор : 0
Формат : MPEG-4 Visual
Профиль формата : Advanced Simple@L5
Параметр BVOP формата : 3
Параметр QPel формата : Нет
Параметр GMC формата : Без точки перехода
Параметр матрицы формата : Default (H.263)
Идентификатор кодека : XVID
Идентификатор кодека/Подсказка : XviD
Продолжительность : 1 ч. 37 м.
Битрейт : 2144 Кбит/сек
Ширина : 720 пикселей
Высота : 304 пикселя
Соотношение сторон : 2,35:1
Частота кадров : 23,976 кадра/сек
Цветовое пространство : YUV
Субдискретизация насыщенности : 4:2:0
Битовая глубина : 8 бит
Тип развёртки : Прогрессивная
Метод сжатия : С потерями
Бит/(Пиксели*Кадры) : 0.408
Размер потока : 1,46 Гбайт (84%)
Библиотека кодирования : XviD 73

Аудио
Идентификатор : 1
Формат : AC-3
Формат/Информация : Audio Coding 3
Расширение режима : CM (complete main)
Параметр Endianness формата : Big
Идентификатор кодека : 2000
Продолжительность : 1 ч. 37 м.
Вид битрейта : Постоянный
Битрейт : 384 Кбит/сек
Каналы : 6 каналов
Расположение каналов : Front: L C R, Side: L R, LFE
Частота : 48,0 КГц
Битовая глубина : 16 бит
Метод сжатия : С потерями
Размер потока : 268 Мбайт (15%)
Выравнивание : Разделение по промежуткам
Продолжительность промежутка : 42 мс. (1,00 видеокадр)
Время предзагрузки промежутка : 500 мс.

pb.wtf



Скачать В пути через торрент http://i74.fastpic.ru/big/2015/1207/c3/d2684f3713572d849eea1a0d8d93aec3.png Скачать, смотреть онлайн В пути бесплантно в хорошем качестве Описание: Берт и Верона узнают, что у них будет ребенок. Уверенные, что малыш должен расти в гармонии с окружающим миром, будущие родители ... 10 10 1
Info! Золотая раздача, скачанное не засчитывается.
Торрент: Зарегистрирован [2015-12-07 14:46] · скачан: 0 раз
Статус: √ проверено
Размер: 1.73 GB
Как cкачать? Как скачать В пути через торрент | UTorrent

28-11-2019 20:33  

Отключить всю рекламу на сайте

    Дорогой пользователь! Огромная просьба, поблагодарите релизера, оцените раздачу и оставьте свои комментарий, если Вы скачали В пути через торрент бесплатно!
    Комментировать посты могут только пользователи прошедшие не сложную регистрацию
    Показать сообщения:    

    В пути через торрент
    Скачать бесплатно В пути
    В пути скачать торрент
    В пути смотреть онлайн
    Cкачать фильм В пути бесплатно
    В пути скачать торрент в хорошем качестве
    В пути смотреть онлайн бесплатно в хорошем качестве


    Вы не можете начинать темы
    Вы не можете отвечать на сообщения
    Вы не можете редактировать свои сообщения
    Вы не можете удалять свои сообщения
    Вы не можете голосовать в опросах
    Вы не можете прикреплять файлы к сообщениям
    Вы можете скачивать файлы